TORRENTS45.XYZ

Скачать Визит / The Visit (2015) HDRip [EN]


Визит / The Visit (2015) HDRip [EN]
Производство: США, Blinding Edge Pictures, Blumhouse Productions
Жанр: Ужасы, Триллер

Режиссер: М. Найт Шьямалан
Актеры: Оливия ДеДжонг, Эд Оксенбульд, Дианна Данаган, Питер МакРобби, Кэтрин Хан, Селия Кинэн-Болджер, Самуэль Стриклен, Патрик Дарро, Хорхе Кордова, Стив Аннан

Описание:
Много лет назад она бежала из родительского дома без оглядки и с тех пор старалась не вспоминать события той самой ночи. Теперь у нее уже взрослые дети. Однажды они получают приглашения от бабушки и дедушки, которых никогда не видели прежде, и решают нанести им визит.



Дата мировой премьеры: 30.08.2015
Дата премьеры в России: 26.11.2015
Качество видео: HDRip
Перевод: Отсутствует
Язык озвучки: Английский

Присутствуют китайские неотключаемые субтитры.

Видео: Xvid, 720x384, ~1922 Kbps
Аудио: AC3, 2 ch, 192 kbps, CBR

Mediainfo:

Код:

General
Complete name                  : I:\Downloads\The Visit (2015).avi
Format                         : AVI
Format/Info                    : Audio Video Interleave
Format profile                 : OpenDML
Format settings                : rec
File size                      : 1.39 GiB
Duration                       : 1h 33mn
Overall bit rate               : 2 119 Kbps
Writing application            : AVI-Mux GUI 1.17.8.3, Feb 16 201019:42:50

Video
ID                             : 0
Format                         : MPEG-4 Visual
Format profile                 : Advanced Simple@L5
Format settings, BVOP          : 2
Format settings, QPel          : No
Format settings, GMC           : No warppoints
Format settings, Matrix        : Default (H.263)
Muxing mode                    : Packed bitstream
Codec ID                       : XVID
Codec ID/Hint                  : XviD
Duration                       : 1h 33mn
Bit rate                       : 1 922 Kbps
Width                          : 720 pixels
Height                         : 384 pixels
Display aspect ratio           : 1.85:1
Frame rate                     : 23.976 fps
Color space                    : YUV
Chroma subsampling             : 4:2:0
Bit depth                      : 8 bits
Scan type                      : Progressive
Compression mode               : Lossy
Bits/(Pixel*Frame)             : 0.290
Stream size                    : 1.26 GiB (91%)
Writing library                : XviD 66

Audio
ID                             : 1
Format                         : AC-3
Format/Info                    : Audio Coding 3
Mode extension                 : CM (complete main)
Format settings, Endianness    : Big
Codec ID                       : 2000
Duration                       : 1h 33mn
Bit rate mode                  : Constant
Bit rate                       : 192 Kbps
Channel(s)                     : 2 channels
Channel positions              : Front: L R
Sampling rate                  : 48.0 KHz
Bit depth                      : 16 bits
Compression mode               : Lossy
Stream size                    : 129 MiB (9%)
Alignment                      : Aligned on interleaves
Interleave, duration           : 64 ms (1.53 video frames)
Interleave, preload duration   : 192 ms
Title                          : ac3
Скриншоты:


Смотреть Online

Детали торрента:
Название:Визит / The Visit (2015) HDRip [EN]
Дата добавления:28 Ноя 2015 09:29:29
Размер:1,39 GB
Раздают:
Качают:0
Форум:Фильмы в оригинале

All rights reserved © 2015-2019