TORRENTS45.XYZ

Скачать Златовласка / Zlatovlaska (1973) HDTVRip


Златовласка / Zlatovlaska (1973) HDTVRip
Русское название: Златовласка
Оригинальное название: Zlatovlaska
Год выпуска: 1973
Производство: Чехословакия
Жанр: Семейный, сказка

Режиссер: Власта Янечкова
Актеры: Жорга Котрбова, Петр Стербнек, Жих Холэ, Ладислав Песек, Мария Розулкова, Жозеф Бек, Житка Молавсова, Люба Скорепова, Жан Триска, Жозеф Велда

Описание:
Музыкальная киносказка на мотивы Карела Яромира Эрбена. Классическая сказка о любви прекрасной Златовласки к юному Иржику. Злой Король велит своему повару Иржику приготовить ему рыбу. Несмотря на строгий запрет, Иржик решает отведать чудесную рыбу и начинает понимать язык зверей. Правда выходит наружу, и король, вместо того, чтобы казнить Иржика, посылает его на поиски невесты, златовласой принцессы. Чтобы добыть ее, Иржик должен выполнить три задания, в этом ему помогают муравьи, рыба и вороны, которых он спасает в пути.



Продолжительность: 01:13:52
Качество видео: HDTVRip
Перевод: Профессиональный (многоголосый, закадровый)

Видеокодек: Xvid
Битрейт видео: ~1463 kbps
Размер кадра: 720x544
Аудио: Русский, Dolby AC3, 2 ch, 192 kb/s
Субтитры: Отсутствуют

Mediainfo:

Код: выделить все

Общее
Полное имя                               : D:\рипы\Мои\Залитые\Zlatovlaska_(1973)_HDTVRip_by_Marchik60.avi
Формат                                   : AVI
Формат/Информация                        : Audio Video Interleave
Размер файла                             : 880 Мбайт
Продолжительность                        : 1 ч. 13 м.
Общий поток                              : 1665 Кбит/сек
Программа кодирования                    : VirtualDubMod 1.5.10.3 | www.virtualdub-fr.org || (build 2550/release)
Библиотека кодирования                   : VirtualDubMod build 2550/release

Видео
Идентификатор                            : 0
Формат                                   : MPEG-4 Visual
Профиль формата                          : Advanced Simple@L5
Параметр BVOP формата                    : 2
Параметр QPel формата                    : Нет
Параметр GMC формата                     : Без точки перехода
Параметр матрицы формата                 : Выборочная
Идентификатор кодека                     : XVID
Идентификатор кодека/Подсказка           : XviD
Продолжительность                        : 1 ч. 13 м.
Битрейт                                  : 1463 Кбит/сек
Ширина                                   : 720 пикселей
Высота                                   : 544 пикселя
Соотношение сторон                       : 4:3
Частота кадров                           : 25,000 кадров/сек
Цветовое пространство                    : YUV
Субдискретизация насыщенности            : 4:2:0
Битовая глубина                          : 8 бит
Тип развёртки                            : Прогрессивная
Метод сжатия                             : С потерями
Бит/(Пиксели*Кадры)                      : 0.149
Размер потока                            : 773 Мбайт (88%)
Библиотека кодирования                   : XviD 73

Аудио
Идентификатор                            : 1
Формат                                   : AC-3
Формат/Информация                        : Audio Coding 3
Расширение режима                        : CM (complete main)
Параметр Endianness формата              : Big
Идентификатор кодека                     : 2000
Продолжительность                        : 1 ч. 13 м.
Вид битрейта                             : Постоянный
Битрейт                                  : 192 Кбит/сек
Каналы                                   : 2 канала
Расположение каналов                     : Front: L R
Частота                                  : 48,0 КГц
Битовая глубина                          : 16 бит
Метод сжатия                             : С потерями
Размер потока                            : 101 Мбайт (12%)
Выравнивание                             : Разделение по промежуткам
Продолжительность промежутка             : 40  мс. (1,00 видеокадр)
Время предзагрузки промежутка            : 500  мс.
Релиз от:
Скриншоты:



Все релизы фильма на Torrents45.xyz
Детали торрента:
Название:Златовласка / Zlatovlaska (1973) HDTVRip
Дата добавления:03 Май 2015 02:03:08
Размер:880 MB
Раздают:1
Качают:0
Форум:Зарубежные Фильмы для детей

All rights reserved © 2015-2019