TORRENTS45.XYZ

Скачать Ez Livin’ - Firestorm (2014) [FLAC|Lossless]<Hard Rock>


Ez Livin’ - Firestorm (2014)
Год: 2014
Жанр: Hard Rock
Продолжительность: 00:41:30
Лейбл: SLEASZY RIDER
№ по каталогу: SR-0130
Страна: Germany / USA
Кодек: FLAC
Тип рипа: image+.cue
Битрейт: Lossless
Треклист:

01. That's How He Rocks
02. Loaded Gun
03. White Lightning
04. Let’s Fly Away
05. Easy Living (Uriah Heep cover)
06. The Damage Is Done
07. Too Late
08. Into The Night
09. Let's Fly Away (Director's Cut)

Дополнительная информация:

Состав:

Hans Ziller-Lead Guitars (Bonfire)
David Reece-Lead Vocals (Accept)
Ronnie Parkes-Bass (Tango Down, Seven Witches)
Paul Morris-Keyboards (Rainbow)
Harry Reischmann-Drums (Bonfire)

Отчёт ЕАС:

Код:

Exact Audio Copy V0.99 prebeta 5 from 4. May 2009

EAC extraction logfile from 16. March 2014, 13:09

Ez Livin' / Firestorm

Used drive  : TSSTcorpCDDVDW SH-222BB   Adapter: 1  ID: 0

Read mode               : Secure
Utilize accurate stream : Yes
Defeat audio cache      : Yes
Make use of C2 pointers : No

Read offset correction                      : 6
Overread into Lead-In and Lead-Out          : No
Fill up missing offset samples with silence : Yes
Delete leading and trailing silent blocks   : No
Null samples used in CRC calculations       : Yes
Used interface                              : Installed external ASPI interface

Used output format              : Monkey's Audio Lossless Encoder
Selected bitrate                : High Lossless Compression
Quality                         : High
Add ID3 tag                     : No
Command line compressor         : C:\Program Files\Monkey's Audio\MAC.exe

TOC of the extracted CD

     Track |   Start  |  Length  | Start sector | End sector
    ---------------------------------------------------------
        1  |  0:00.00 |  4:31.01 |         0    |    20325
        2  |  4:31.01 |  3:41.18 |     20326    |    36918
        3  |  8:12.19 |  5:57.15 |     36919    |    63708
        4  | 14:09.34 |  4:55.41 |     63709    |    85874
        5  | 19:05.00 |  4:44.29 |     85875    |   107203
        6  | 23:49.29 |  4:27.23 |    107204    |   127251
        7  | 28:16.52 |  4:48.07 |    127252    |   148858
        8  | 33:04.59 |  3:31.48 |    148859    |   164731
        9  | 36:36.32 |  4:53.41 |    164732    |   186747

Range status and errors

Selected range

     Filename D:\METALLIUM\HMR\[metallium.moole.ru]\Ez Livin' - Firestorm.wav

     Peak level 99.9 %
     Range quality 100.0 %
     Copy CRC 561928EB
     Copy OK

No errors occurred

AccurateRip summary

Track  1  not present in database
Track  2  not present in database
Track  3  not present in database
Track  4  not present in database
Track  5  not present in database
Track  6  not present in database
Track  7  not present in database
Track  8  not present in database
Track  9  not present in database

None of the tracks are present in the AccurateRip database

End of status report

Отчёт auCDtect Task manager:

Код:

-----------------------

DON'T MODIFY THIS FILE

-----------------------

PERFORMER: auCDtect Task Manager, ver. 1.6.0 RC1 build 1.6.0.1
Copyright (c) 2008-2010 y-soft. All rights reserved
http://y-soft.org

ANALYZER: auCDtect: CD records authenticity detector, version 0.8.2
Copyright (c) 2004 Oleg Berngardt. All rights reserved.
Copyright (c) 2004 Alexander Djourik. All rights reserved.

FILE: Ez Livin' - Firestorm.flac
  Size: 317125459 Hash: B248390C45F6BDDE186749AA41E36D77 Accuracy: -m0
  Conclusion: CDDA 100%
  Signature: BC9034454F1DDCAE29495E5BFBECE56C73D7E5D9

Детали торрента:
Название:Ez Livin’ - Firestorm (2014) [FLAC|Lossless]<Hard Rock>
Дата добавления:16 Мар 2014 20:48:16
Размер:305 MB
Раздают:1
Качают:0
Форум:Hard Rock (Lossless)

All rights reserved © 2015-2019