TORRENTS45.XYZ

Скачать Don Airey - Keyed Up (2014)[FLAC|Lossless]<Hard Rock>


Don Airey - Keyed Up (2014)
Год: 2014
Издание: Mascot Music Production
Номер по каталогу: MTR 7408 2
Жанр: Hard Rock
Источник : souldoctor
Сканы: Есть
Продолжительность: 00:53:59
Кодек: FLAC
Тип рипа: Image+.cue
Метод сжатия: Lossless
DR7
Треклист:
01. 3 In The Morning (4:18)
02. Beat The Retreat (5:55)
03. Blue Rondo A La Turk (5:15)
04. Solomon's Song (5:38)
05. Claire D'loon (5:13)
06. Flight Of Inspiration (4:34)
07. Inside & The Godbox (0:37)
08. Difficult To Cure 2013 (5:44)
09. Mini Suite (7:03)
10. Adagio (5:24)
11. Grace (4:19)

Состав:

Don Airey - keyboards
Darrin Mooney - drums
Laurence Cottle - bass
Rob Harris - guitar
Carl Sentance - vocals
With:
Gary Moore - guitar on ‘Adagio’ and ‘Mini Suite’
Graham Bonnet, Simon MacBride, Alex Meadows, Tim Goodyer

Содержимое индексной карты:

Код:

REM GENRE "Christian Rock"
REM DATE 2014
REM DISCID A90CA60B
REM COMMENT "ExactAudioCopy v1.0b3"
PERFORMER "Don Airey"
TITLE "Keyed Up"
FILE "Don Airey - Keyed Up.flac" WAVE
  TRACK 01 AUDIO
    TITLE "3 In The Morning"
    PERFORMER "Don Airey"
    INDEX 01 00:00:00
  TRACK 02 AUDIO
    TITLE "Beat The Retreat"
    PERFORMER "Don Airey"
    FLAGS DCP
    INDEX 01 04:17:49
  TRACK 03 AUDIO
    TITLE "Blue Rondo A La Turk "
    PERFORMER "Don Airey"
    FLAGS DCP
    INDEX 01 10:12:71
  TRACK 04 AUDIO
    TITLE "Solomon's Song "
    PERFORMER "Don Airey"
    FLAGS DCP
    INDEX 01 15:27:41
  TRACK 05 AUDIO
    TITLE "Claire D'loon "
    PERFORMER "Don Airey"
    FLAGS DCP
    INDEX 01 21:05:40
  TRACK 06 AUDIO
    TITLE "Flight Of Inspiration "
    PERFORMER "Don Airey"
    FLAGS DCP
    INDEX 01 26:18:04
  TRACK 07 AUDIO
    TITLE "Inside & The Godbox"
    PERFORMER "Don Airey"
    FLAGS DCP
    INDEX 01 30:52:30
  TRACK 08 AUDIO
    TITLE "Difficult To Cure 2013 "
    PERFORMER "Don Airey"
    FLAGS DCP
    INDEX 01 31:28:70
  TRACK 09 AUDIO
    TITLE "Mini Suite "
    PERFORMER "Don Airey"
    FLAGS DCP
    INDEX 01 37:13:16
  TRACK 10 AUDIO
    TITLE "Adagio "
    PERFORMER "Don Airey"
    FLAGS DCP
    INDEX 01 44:16:39
  TRACK 11 AUDIO
    TITLE "Grace "
    PERFORMER "Don Airey"
    FLAGS DCP
    INDEX 01 49:40:06

Отчёт ЕАС:

Код:

Exact Audio Copy V1.0 beta 3 from 29. August 2011

Отчёт EAC об извлечении, выполненном 7. марта 2014, 16:55

Don Airey / Keyed Up

Дисковод: ATAPI   iHAS124   D   Adapter: 2  ID: 0

Режим чтения                 : Достоверность
Использование точного потока : Да
Отключение кэша аудио        : Да
Использование указателей C2  : Нет

Коррекция смещения при чтении                     : 6
Способность читать области Lead-in и Lead-out     : Нет
Заполнение пропущенных сэмплов тишиной            : Да
Удаление блоков с тишиной в начале и конце        : Нет
При вычислениях CRC использовались нулевые сэмплы : Да
Интерфейс                                         : Установленный внешний ASPI-интерфейс

Выходной формат          : Пользовательский кодировщик
Выбранный битрейт        : 128 kBit/s
Качество                 : Высокий
Добавление ID3-тега      : Нет
Утилита сжатия           : C:\Program Files (x86)\Exact Audio Copy\FLAC\FLAC.EXE
Дополнительные параметры : -6 -V -T "ARTIST=%artist%" -T "TITLE=%title%" -T "ALBUM=%albumtitle%" -T "DATE=%year%" -T "TRACKNUMBER=%tracknr%" -T "GENRE=%genre%" -T "COMMENT=%comment%" -T "BAND=%albuminterpret%" -T "ALBUMARTIST=%albuminterpret%" -T "COMPOSER=%composer%" %haslyrics%--tag-from-file=LYRICS="%lyricsfile%"%haslyrics% -T "DISCNUMBER=%cdnumber%" -T "TOTALDISCS=%totalcds%" -T "TOTALTRACKS=%numtracks%" %hascover%--picture="%coverfile%"%hascover% %source% -o %dest%

TOC извлечённого CD

     Трек |   Старт  | Длительность | Начальный сектор | Конечный сектор
    ---------------------------------------------------------------------
       1  |  0:00.00 |    4:17.49   |           0      |      19323
       2  |  4:17.49 |    5:55.22   |       19324      |      45970
       3  | 10:12.71 |    5:14.45   |       45971      |      69565
       4  | 15:27.41 |    5:37.74   |       69566      |      94914
       5  | 21:05.40 |    5:12.39   |       94915      |     118353
       6  | 26:18.04 |    4:34.26   |      118354      |     138929
       7  | 30:52.30 |    0:36.40   |      138930      |     141669
       8  | 31:28.70 |    5:44.21   |      141670      |     167490
       9  | 37:13.16 |    7:03.23   |      167491      |     199238
      10  | 44:16.39 |    5:23.42   |      199239      |     223505
      11  | 49:40.06 |    4:18.56   |      223506      |     242911

Характеристики диапазона извлечения и сообщения об ошибках

Выбранный диапазон

     Имя файла C:\Users\Владимир\Documents\Don Airey - Keyed Up.wav

     Пиковый уровень 97.2 %
     Скорость извлечения 3.4 X
     Качество диапазона 100.0 %
     CRC копии A7C178F2
     Копирование... OK

Ошибок не произошло

Конец отчёта

==== Контрольная сумма отчёта A12512927AC02A9F8915DF83362FB3336ABC68F74CCF59FBFB3BCBBA0748CDFF ====

Отчёт auCDtect Task Manager:

Код:
-----------------------

DON'T MODIFY THIS FILE

-----------------------

PERFORMER: auCDtect Task Manager, ver. 1.6.0 RC1 build 1.6.0.1
Copyright (c) 2008-2010 y-soft. All rights reserved
http://y-soft.org

ANALYZER: auCDtect: CD records authenticity detector, version 0.8.2
Copyright (c) 2004 Oleg Berngardt. All rights reserved.
Copyright (c) 2004 Alexander Djourik. All rights reserved.

FILE: Don Airey - Keyed Up.flac
  Size: 380395835 Hash: 382428F531C7EB678E418DD1AB8C3C21 Accuracy: -m0
  Conclusion: CDDA 100%
  Signature: 2CB6CAEF9BFAE6B21EB83AED0B0C838F660D6417

Сверка с AccurateRip:

Код:
[CUETools log; Date: 13.03.2014 1:31:20; Version: 2.1.5]
[CTDB TOCID: ebg9i6Ne_gDLXmRGGdDiRbbMUIc-] found.
Track | CTDB Status
  1   | (1/1) Accurately ripped
  2   | (1/1) Accurately ripped
  3   | (1/1) Accurately ripped
  4   | (1/1) Accurately ripped
  5   | (1/1) Accurately ripped
  6   | (1/1) Accurately ripped
  7   | (1/1) Accurately ripped
  8   | (1/1) Accurately ripped
  9   | (1/1) Accurately ripped
 10   | (1/1) Accurately ripped
 11   | (1/1) Accurately ripped
[AccurateRip ID: 00164e76-00c08bda-a90ca60b] disk not present in database.

Track Peak [ CRC32  ] [W/O NULL] [  LOG   ]
 --   97,2 [A7C178F2] [E0CB8876]   CRC32
 01   96,3 [2DF9730D] [15563472]
 02   97,1 [8D8D5210] [ABBEF8B6]
 03   96,1 [ACD01EFE] [22590AD8]
 04   96,5 [21988FE0] [ED3FD9BA]
 05   96,0 [EF85C5A7] [D5364074]
 06   95,6 [DCF9A0AE] [7F05637D]
 07   92,6 [F5CD94DE] [3C21648F]
 08   95,4 [6AA68BFA] [4E1B9985]
 09   96,2 [7313DE4B] [DC8CE9C4]
 10   97,2 [8D92D8B7] [1ADC23A2]
 11   96,3 [92A4A3D1] [CAA84CD3]



Поглощение/вытеснение
Только с согласия релизера

Bigbeer
Детали торрента:
Название:Don Airey - Keyed Up (2014)[FLAC|Lossless]<Hard Rock>
Дата добавления:12 Мар 2014 19:05:45
Размер:403 MB
Раздают:1
Качают:0
Форум:Hard Rock (Lossless)

All rights reserved © 2015-2019