TORRENTS45.XYZ

Скачать Helix - Back For Another Taste (1990) Japan [APE|Lossless]<Hard Rock>


Helix - Back For Another Taste (1990) Japan
Год: 1990
Жанр: Hard Rock
Label & Catalog#: Teichiku Records - TECP-25786
Продолжительность: 00:48:36

Кодек: APE [img+cue]
Битрейт: Lossless

Треклист:
01. The storm [04:28]
02. Running wild in the 21st century [03:51]
03. Thatґs life [03:41]
04. Breakdown [05:27]
05. Heavy metal cowboys [03:02]
06. Wild in the streets [03:43]
07. Back for another taste [03:58]
08. Rockinґrollercoaster [03:20]
09. Midnight express [04:06]
10. Good to the last drop [04:28]
11. Give it to you [04:06]
12. Wheels of Thunder [04:22]

cue:

Код:
REM DISCID 8F0B650C
REM COMMENT "ExactAudioCopy v0.95b4"
PERFORMER "Helix"
TITLE "Back for another taste"
FILE "Helix - Back for another taste.wav" WAVE
  TRACK 01 AUDIO
    TITLE " The storm"
    PERFORMER "Helix"
    INDEX 00 00:00:00
    INDEX 01 00:00:37
  TRACK 02 AUDIO
    TITLE "Running wild in the 21st century"
    PERFORMER "Helix"
    INDEX 00 04:28:45
    INDEX 01 04:28:64
  TRACK 03 AUDIO
    TITLE "Thatґs life"
    PERFORMER "Helix"
    INDEX 00 08:19:45
    INDEX 01 08:20:22
  TRACK 04 AUDIO
    TITLE "Breakdown"
    PERFORMER "Helix"
    INDEX 00 12:01:25
    INDEX 01 12:02:07
  TRACK 05 AUDIO
    TITLE "Heavy metal cowboys"
    PERFORMER "Helix"
    INDEX 00 17:28:63
    INDEX 01 17:29:17
  TRACK 06 AUDIO
    TITLE "Wild in the streets"
    PERFORMER "Helix"
    INDEX 00 20:30:58
    INDEX 01 20:31:54
  TRACK 07 AUDIO
    TITLE "Back for another taste"
    PERFORMER "Helix"
    INDEX 00 24:13:58
    INDEX 01 24:14:54
  TRACK 08 AUDIO
    TITLE "Rockinґrollercoaster"
    PERFORMER "Helix"
    INDEX 00 28:12:15
    INDEX 01 28:13:39
  TRACK 09 AUDIO
    TITLE "Midnight express"
    PERFORMER "Helix"
    INDEX 00 31:32:15
    INDEX 01 31:33:54
  TRACK 10 AUDIO
    TITLE "Good to the last drop"
    PERFORMER "Helix"
    INDEX 00 35:39:03
    INDEX 01 35:40:09
  TRACK 11 AUDIO
    TITLE "Give it to you"
    PERFORMER "Helix"
    INDEX 00 40:08:05
    INDEX 01 40:08:64
  TRACK 12 AUDIO
    TITLE "Wheels of Thunder"
    PERFORMER "Helix"
    INDEX 00 44:14:38
    INDEX 01 44:15:02

Отчёт ЕАС:

Код:

Отчёт EAC об извлечении, выполненном 6. октября 2009, 16:58 для диска:
Helix / Back for another taste

Дисковод: PIONEER DVD-RW  DVR-216D   Adapter: 3  ID: 1
Режим чтения: Достоверный (C2: нет, Точный поток: да, Отключение кэша: да)
Коррекция смещения при чтении: 96
Способность читать области Lead-in и Lead-out : Нет

Выходной формат: Внутренние WAV-операции
                     44.100 Гц; 16 бит; стерео

Другие параметры:
    Заполнение пропущенных сэмплов тишиной : Да
    Удаление блоков с тишиной в начале и конце : Нет
    Встроенный Win32-интерфейс для Win NT/2000

Характеристики диапазона извлечения и сообщения об ошибках
Выбранный диапазон
     Имя файла H:\Мои раздачи\Helix\Back for another taste (TECP-25786)\ape\Helix - Back for another taste.wav

     Пиковый уровень 99.8 %
     Качество диапазона 99.9 %
     CRC 81E27C05
     Копирование... OK

Ошибок не произошло

Конец отчёта

Отчёт auCDtect Task manager:

Код:

-----------------------

DON'T MODIFY THIS FILE

-----------------------

PERFORMER: auCDtect Task Manager, ver. 1.6.0 RC1 build 1.6.0.1
Copyright (c) 2008-2010 y-soft. All rights reserved
http://y-soft.org

ANALYZER: auCDtect: CD records authenticity detector, version 0.8.2
Copyright (c) 2004 Oleg Berngardt. All rights reserved.
Copyright (c) 2004 Alexander Djourik. All rights reserved.

FILE: Helix - Back for another taste.ape
  Size: 333533392 Hash: 569AB1127987037CAF507B4BC04A809D Accuracy: -m0
  Conclusion: CDDA 99%
  Signature: 0224079906A204AAE61DF5B213F07C6F6C5C7C69

Спектрограмма:

Thanks Manstr
Детали торрента:
Название:Helix - Back For Another Taste (1990) Japan [APE|Lossless]<Hard Rock>
Дата добавления:02 Мар 2014 09:19:53
Размер:335 MB
Раздают:1
Качают:0
Форум:Hard Rock (Lossless)

All rights reserved © 2015-2019