TORRENTS45.XYZ

Скачать VA - Power Ballads - Gold 2CD (2005) [FLAC|Lossless]<Hard Rock>


VA - Power Ballads - Gold (2005)
Год: 2005
Жанр: Hard Rock
Продолжительность: 02:22:52
Лейбл: Hip-O Records
Каталог: 602498834077

Кодек: FLAC (tracks+.cue +log)
Битрейт: Lossless

CD 1:

Трек лист:
01. Styx - Lady (2:57)
02. Bad Company - Feel Like Makin' Love (5:12)
03. Nazareth - Love Hurts (3:54)
04. Kiss - Beth (2:45)
05. Foreigner - I Want To Know What Love Is (4:59)
06. Night Ranger - Goodbye (4:19)
07. Boston - Amanda (4:17)
08. Europe - Carrie (4:31)
09. Whitesnake - Is This Love (4:45)
10. Stryper - Honestly (4:08)
11. Great White - Save Your Love (5:43)
12. Kingdom Come - What Love Can Be (5:16)
13. Cinderella - Don't Know What You Got (Till It's Gone) (5:54)
14. Poison - Every Rose Has It's Thorn (4:20)
15. White Lion - When The Children Cry (4:20)
Продолжительность – 01:07:20

Отчёт ЕАС:

Код:

Exact Audio Copy V1.0 beta 1 from 15. November 2010

EAC extraction logfile from 14. March 2011, 20:10

Various / Power Ballads Gold (Disk 1)

Used drive  : HL-DT-STBD-RE  BH30N   Adapter: 0  ID: 1

Read mode               : Secure
Utilize accurate stream : Yes
Defeat audio cache      : Yes
Make use of C2 pointers : No

Read offset correction                      : 667
Overread into Lead-In and Lead-Out          : No
Fill up missing offset samples with silence : Yes
Delete leading and trailing silent blocks   : No
Null samples used in CRC calculations       : Yes
Used interface                              : Native Win32 interface for Win NT & 2000
Gap handling                                : Appended to previous track

Used output format              : User Defined Encoder
Selected bitrate                : 128 kBit/s
Quality                         : High
Add ID3 tag                     : No
Command line compressor         : C:\Program Files (x86)\FLAC\flac.exe
Additional command line options : V -8 -T "artist=%a" -T "title=%t" -T "album=%g" -T "date=%y" -T "tracknumber=%n" -T "genre=%m" %s

TOC of the extracted CD

     Track |   Start  |  Length  | Start sector | End sector
    ---------------------------------------------------------
        1  |  0:00.00 |  2:56.62 |         0    |    13261
        2  |  2:56.62 |  5:12.25 |     13262    |    36686
        3  |  8:09.12 |  3:53.48 |     36687    |    54209
        4  | 12:02.60 |  2:45.20 |     54210    |    66604
        5  | 14:48.05 |  4:59.12 |     66605    |    89041
        6  | 19:47.17 |  4:18.70 |     89042    |   108461
        7  | 24:06.12 |  4:17.20 |    108462    |   127756
        8  | 28:23.32 |  4:30.43 |    127757    |   148049
        9  | 32:54.00 |  4:45.05 |    148050    |   169429
       10  | 37:39.05 |  4:08.35 |    169430    |   188064
       11  | 41:47.40 |  5:42.57 |    188065    |   213771
       12  | 47:30.22 |  5:15.63 |    213772    |   237459
       13  | 52:46.10 |  5:54.37 |    237460    |   264046
       14  | 58:40.47 |  4:19.48 |    264047    |   283519
       15  | 63:00.20 |  4:19.65 |    283520    |   303009

Track  1

     Filename C:\Users\el gagnoss\Music\Playlists\power ballads\01 - Styx - Lady.wav

     Pre-gap length  0:00:02.00

     Peak level 96.6 %
     Extraction speed 0.4 X
     Track quality 100.0 %
     Test CRC C8F0BBCD
     Copy CRC C8F0BBCD
     Accurately ripped (confidence 23)  [F57ACF13]
     Copy OK

Track  2

     Filename C:\Users\el gagnoss\Music\Playlists\power ballads\02 - Bad Company - Feel Like Makin' Love.wav

     Peak level 98.8 %
     Extraction speed 0.5 X
     Track quality 100.0 %
     Test CRC F246A98D
     Copy CRC F246A98D
     Accurately ripped (confidence 23)  [2E0E01A0]
     Copy OK

Track  3

     Filename C:\Users\el gagnoss\Music\Playlists\power ballads\03 - Nazareth - Love Hurts.wav

     Peak level 98.8 %
     Extraction speed 0.6 X
     Track quality 100.0 %
     Test CRC 1F233EA6
     Copy CRC 1F233EA6
     Accurately ripped (confidence 24)  [992F7348]
     Copy OK

Track  4

     Filename C:\Users\el gagnoss\Music\Playlists\power ballads\04 - Kiss - Beth.wav

     Peak level 98.8 %
     Extraction speed 0.6 X
     Track quality 100.0 %
     Test CRC 0E3727A1
     Copy CRC 0E3727A1
     Accurately ripped (confidence 23)  [068EB8AC]
     Copy OK

Track  5

     Filename C:\Users\el gagnoss\Music\Playlists\power ballads\05 - Foreigner - I Want To Know What Love Is.wav

     Peak level 98.8 %
     Extraction speed 0.6 X
     Track quality 100.0 %
     Test CRC E11A1E49
     Copy CRC E11A1E49
     Accurately ripped (confidence 22)  [A97E9E24]
     Copy OK

Track  6

     Filename C:\Users\el gagnoss\Music\Playlists\power ballads\06 - Night Ranger - Goodbye.wav

     Peak level 98.8 %
     Extraction speed 0.6 X
     Track quality 100.0 %
     Test CRC 0AE5D16F
     Copy CRC 0AE5D16F
     Accurately ripped (confidence 23)  [38BB44C6]
     Copy OK

Track  7

     Filename C:\Users\el gagnoss\Music\Playlists\power ballads\07 - Boston - Amanda.wav

     Peak level 98.8 %
     Extraction speed 0.7 X
     Track quality 100.0 %
     Test CRC 53DE25CE
     Copy CRC 53DE25CE
     Accurately ripped (confidence 24)  [A5C5C8C0]
     Copy OK

Track  8

     Filename C:\Users\el gagnoss\Music\Playlists\power ballads\08 - Europe - Carrie.wav

     Peak level 98.8 %
     Extraction speed 0.7 X
     Track quality 100.0 %
     Test CRC E8C0ABE1
     Copy CRC E8C0ABE1
     Accurately ripped (confidence 21)  [D0E9AF81]
     Copy OK

Track  9

     Filename C:\Users\el gagnoss\Music\Playlists\power ballads\09 - Whitesnake - Is This Love.wav

     Peak level 90.1 %
     Extraction speed 0.7 X
     Track quality 100.0 %
     Test CRC 26E00186
     Copy CRC 26E00186
     Accurately ripped (confidence 23)  [B4945916]
     Copy OK

Track 10

     Filename C:\Users\el gagnoss\Music\Playlists\power ballads\10 - Stryper - Honestly.wav

     Peak level 98.8 %
     Extraction speed 0.7 X
     Track quality 100.0 %
     Test CRC 955BF944
     Copy CRC 955BF944
     Accurately ripped (confidence 23)  [DB3512BB]
     Copy OK

Track 11

     Filename C:\Users\el gagnoss\Music\Playlists\power ballads\11 - Great White - Save Your Love.wav

     Pre-gap length  0:00:01.50

     Peak level 98.8 %
     Extraction speed 0.9 X
     Track quality 100.0 %
     Test CRC 1401F5A7
     Copy CRC 1401F5A7
     Accurately ripped (confidence 23)  [05435189]
     Copy OK

Track 12

     Filename C:\Users\el gagnoss\Music\Playlists\power ballads\12 - Kingdom Come - What Love Can Be.wav

     Peak level 98.8 %
     Extraction speed 0.9 X
     Track quality 100.0 %
     Test CRC 468C160B
     Copy CRC 468C160B
     Accurately ripped (confidence 23)  [CC1391D7]
     Copy OK

Track 13

     Filename C:\Users\el gagnoss\Music\Playlists\power ballads\13 - Cinderella - Don't Know What You Got (Till It's Gone).wav

     Peak level 98.8 %
     Extraction speed 1.0 X
     Track quality 100.0 %
     Test CRC ADE99626
     Copy CRC ADE99626
     Accurately ripped (confidence 22)  [DDE5AD5C]
     Copy OK

Track 14

     Filename C:\Users\el gagnoss\Music\Playlists\power ballads\14 - Poison - Every Rose Has It's Thorn.wav

     Peak level 96.6 %
     Extraction speed 0.9 X
     Track quality 99.9 %
     Test CRC 8A9D64BA
     Copy CRC 8A9D64BA
     Accurately ripped (confidence 22)  [7296EB88]
     Copy OK

Track 15

     Filename C:\Users\el gagnoss\Music\Playlists\power ballads\15 - White Lion - When The Children Cry.wav

     Peak level 98.8 %
     Extraction speed 1.0 X
     Track quality 100.0 %
     Test CRC 67B69294
     Copy CRC 67B69294
     Accurately ripped (confidence 20)  [0A34A55B]
     Copy OK

All tracks accurately ripped

No errors occurred

End of status report
 

Отчёт auCDtect:

Код:

-----------------------

DON'T MODIFY THIS FILE

-----------------------

PERFORMER: auCDtect Task Manager, ver. 1.5.1RC6 build 1.5.1.7
Copyright (c) 2008-2010 y-soft. All rights reserved
http://y-soft.org

ANALYZER: auCDtect: CD records authenticity detector, version 0.8.2
Copyright (c) 2004 Oleg Berngardt. All rights reserved.
Copyright (c) 2004 Alexander Djourik. All rights reserved.

FILE: 15 - White Lion - When The Children Cry.flac
  Size: 28040590 Hash: 7A7FA832C434C0840FC833F7DF5B1E04 Accuracy: -m0
  Conclusion: CDDA 100%
  Signature: C43C19F48906A4434B07A7797E02291F1E865ED2
FILE: 14 - Poison - Every Rose Has It's Thorn.flac
  Size: 30331359 Hash: 68FC4E40180083AA9ECD1A168EC7F3D5 Accuracy: -m0
  Conclusion: CDDA 100%
  Signature: 334380F3DEA30CC615FC5FBA2513C0AA520C339E
FILE: 13 - Cinderella - Don't Know What You Got (Till It's Gone).flac
  Size: 42438969 Hash: A1AC8215595AF81BCC2375C577C7F499 Accuracy: -m0
  Conclusion: CDDA 100%
  Signature: 42A66D093D534275EFA2FBCB4F9794B3A37CB073
FILE: 12 - Kingdom Come - What Love Can Be.flac
  Size: 34934433 Hash: FB4868CEC8023ECA71B8C611568151E1 Accuracy: -m0
  Conclusion: CDDA 100%
  Signature: B0501FEF48EF862C2741278D8180C1A53054E0EE
FILE: 11 - Great White - Save Your Love.flac
  Size: 38166499 Hash: B4DF203358BE0BE8138F73744CDB26ED Accuracy: -m0
  Conclusion: CDDA 99%
  Signature: DA953793408A3860A03BD1A17A47A515C829D947
FILE: 10 - Stryper - Honestly.flac
  Size: 29715707 Hash: 033768EC4DEEEC3B82D2C46F567A09E5 Accuracy: -m0
  Conclusion: CDDA 100%
  Signature: 6594FE4405188233D99FCB098F5DD1929951EDD5
FILE: 09 - Whitesnake - Is This Love.flac
  Size: 33818363 Hash: 5D16F09A17B048CE9DC5C254176035B7 Accuracy: -m0
  Conclusion: CDDA 100%
  Signature: EDD388C12E330E08A108D25068A61F70FBBB3B95
FILE: 08 - Europe - Carrie.flac
  Size: 31919459 Hash: D221245ADDA666DA6467B0F8EA17B6C5 Accuracy: -m0
  Conclusion: CDDA 100%
  Signature: 4FFAFD9FE2059E584F27421F3B25C078BDDDF324
FILE: 07 - Boston - Amanda.flac
  Size: 30664808 Hash: 6D10B92B8CDCE8489B3F4AD5C5A3DB12 Accuracy: -m0
  Conclusion: CDDA 99%
  Signature: 1BF39FBBE20518488AA3AB8DDF2B853C141A76F2
FILE: 06 - Night Ranger - Goodbye.flac
  Size: 31482462 Hash: C469C7167FA7F1B4F5B7A0C85644BBC0 Accuracy: -m0
  Conclusion: CDDA 100%
  Signature: 2C95A5FB33B14F7A3E1E095B934D3C9A04C35AA0
FILE: 05 - Foreigner - I Want To Know What Love Is.flac
  Size: 34548928 Hash: 78B8C21D3115004575F93CD5F43F80C3 Accuracy: -m0
  Conclusion: CDDA 100%
  Signature: 7E9E049CC95595B0F36D67764C76369DACD6A8D8
FILE: 04 - Kiss - Beth.flac
  Size: 17129012 Hash: 820D50B63493FF49043CE4B7173BAB79 Accuracy: -m0
  Conclusion: CDDA 100%
  Signature: 1E8F0B305A5E3EE992E048FB0EE84873EA1ABF24
FILE: 03 - Nazareth - Love Hurts.flac
  Size: 27098079 Hash: 74445F422F2A45C8C117E92C226F753B Accuracy: -m0
  Conclusion: CDDA 100%
  Signature: 70B2396EC34CA65F9192B3C274C78F60BB1F29A1
FILE: 02 - Bad Company - Feel Like Makin' Love.flac
  Size: 37056891 Hash: 257AC88358C40072EC483ED2C9FF9BAB Accuracy: -m0
  Conclusion: CDDA 100%
  Signature: EA28E51D7C8FAF51CF6F6DED6B9BE86D38651DD2
FILE: 01 - Styx - Lady.flac
  Size: 20951291 Hash: 8D552245CD36BDD82478E9129E33A9D7 Accuracy: -m0
  Conclusion: CDDA 100%
  Signature: 4A6D8EFFF4B78A393F4C6DCCA0F54EFDE100273E

CD 2:

Трек лист:
01. Winger - Headed For A Heartbreak (5:13)
02. Warrant - Heaven (3:57)
03. Kix - Don't Close Your Eyes (4:20)
04. Bad English - When I See You Smile (4:19)
05. Tesla - Love Song (5:22)
06. Skid Row - I Remember You (5:15)
07. L.A. Guns - The Ballad Of Jayne (4:33)
08. Slaughter - Fly To The Angels (5:07)
09. Damn Yankees - High Enough (4:45)
10. Queensryche - Silent Lucidity (5:46)
11. Extreme - More Than Words (5:36)
12. Firehouse - Love Of A Lifetime (4:58)
13. Nelson - Only Time Will Tell (5:08)
14. Saigon Kick - Love Is On The Way (4:25)
15. Meat Loaf - I'd Do Anything For Love (But I Won't Do That) (6:40)
Продолжительность – 01:15:26

Отчёт ЕАС:

Код:

Exact Audio Copy V1.0 beta 1 from 15. November 2010

EAC extraction logfile from 15. March 2011, 15:47

Various / Power Ballads Gold (Disc 2)

Used drive  : HL-DT-STBD-RE  BH30N   Adapter: 0  ID: 1

Read mode               : Secure
Utilize accurate stream : Yes
Defeat audio cache      : Yes
Make use of C2 pointers : No

Read offset correction                      : 667
Overread into Lead-In and Lead-Out          : No
Fill up missing offset samples with silence : Yes
Delete leading and trailing silent blocks   : No
Null samples used in CRC calculations       : Yes
Used interface                              : Native Win32 interface for Win NT & 2000
Gap handling                                : Appended to previous track

Used output format              : User Defined Encoder
Selected bitrate                : 128 kBit/s
Quality                         : High
Add ID3 tag                     : No
Command line compressor         : C:\Program Files (x86)\FLAC\flac.exe
Additional command line options : V -8 -T "artist=%a" -T "title=%t" -T "album=%g" -T "date=%y" -T "tracknumber=%n" -T "genre=%m" %s

TOC of the extracted CD

     Track |   Start  |  Length  | Start sector | End sector
    ---------------------------------------------------------
        1  |  0:00.00 |  5:13.05 |         0    |    23479
        2  |  5:13.05 |  3:56.52 |     23480    |    41231
        3  |  9:09.57 |  4:19.45 |     41232    |    60701
        4  | 13:29.27 |  4:18.73 |     60702    |    80124
        5  | 17:48.25 |  5:22.32 |     80125    |   104306
        6  | 23:10.57 |  5:15.13 |    104307    |   127944
        7  | 28:25.70 |  4:33.35 |    127945    |   148454
        8  | 32:59.30 |  5:07.15 |    148455    |   171494
        9  | 38:06.45 |  4:45.25 |    171495    |   192894
       10  | 42:51.70 |  5:46.27 |    192895    |   218871
       11  | 48:38.22 |  5:36.18 |    218872    |   244089
       12  | 54:14.40 |  4:58.20 |    244090    |   266459
       13  | 59:12.60 |  5:08.25 |    266460    |   289584
       14  | 64:21.10 |  4:25.25 |    289585    |   309484
       15  | 68:46.35 |  6:39.67 |    309485    |   339476

Track  1

     Filename C:\Users\el gagnoss\Music\Playlists\power ballads\Power Ballads Gold [Flac]\01 - Winger - Headed For A Heartbreak.wav

     Pre-gap length  0:00:02.00

     Peak level 98.8 %
     Extraction speed 0.5 X
     Track quality 100.0 %
     Test CRC 6A376005
     Copy CRC 6A376005
     Accurately ripped (confidence 2)  [74A1B39B]
     Copy OK

Track  2

     Filename C:\Users\el gagnoss\Music\Playlists\power ballads\Power Ballads Gold [Flac]\02 - Warrant - Heaven.wav

     Peak level 98.8 %
     Extraction speed 0.5 X
     Track quality 100.0 %
     Test CRC 43374CA0
     Copy CRC 43374CA0
     Accurately ripped (confidence 2)  [8EF8EB41]
     Copy OK

Track  3

     Filename C:\Users\el gagnoss\Music\Playlists\power ballads\Power Ballads Gold [Flac]\03 - Kix - Don't Close Your Eyes.wav

     Peak level 98.8 %
     Extraction speed 0.6 X
     Track quality 100.0 %
     Test CRC 2F39F1BA
     Copy CRC 2F39F1BA
     Accurately ripped (confidence 2)  [F64BC245]
     Copy OK

Track  4

     Filename C:\Users\el gagnoss\Music\Playlists\power ballads\Power Ballads Gold [Flac]\04 - Bad English - When I See You Smile.wav

     Peak level 98.8 %
     Extraction speed 0.5 X
     Track quality 99.9 %
     Test CRC CCCAB180
     Copy CRC CCCAB180
     Accurately ripped (confidence 2)  [D8030FD3]
     Copy OK

Track  5

     Filename C:\Users\el gagnoss\Music\Playlists\power ballads\Power Ballads Gold [Flac]\05 - Tesla - Love Song.wav

     Pre-gap length  0:00:01.50

     Peak level 98.8 %
     Extraction speed 0.6 X
     Track quality 99.9 %
     Test CRC 106F6D2B
     Copy CRC 106F6D2B
     Accurately ripped (confidence 2)  [9F368490]
     Copy OK

Track  6

     Filename C:\Users\el gagnoss\Music\Playlists\power ballads\Power Ballads Gold [Flac]\06 - Skid Row - I Remember You.wav

     Peak level 98.8 %
     Extraction speed 0.7 X
     Track quality 100.0 %
     Test CRC 8BFA314E
     Copy CRC 8BFA314E
     Accurately ripped (confidence 2)  [CD89644B]
     Copy OK

Track  7

     Filename C:\Users\el gagnoss\Music\Playlists\power ballads\Power Ballads Gold [Flac]\07 - L.A. Guns - The Ballad Of Jayne.wav

     Pre-gap length  0:00:01.53

     Peak level 98.8 %
     Extraction speed 0.7 X
     Track quality 100.0 %
     Test CRC EF61F962
     Copy CRC EF61F962
     Accurately ripped (confidence 2)  [49B38E6B]
     Copy OK

Track  8

     Filename C:\Users\el gagnoss\Music\Playlists\power ballads\Power Ballads Gold [Flac]\08 - Slaughter - Fly To The Angels.wav

     Peak level 98.8 %
     Extraction speed 0.7 X
     Track quality 100.0 %
     Test CRC 456E5735
     Copy CRC 456E5735
     Accurately ripped (confidence 2)  [A3B96553]
     Copy OK

Track  9

     Filename C:\Users\el gagnoss\Music\Playlists\power ballads\Power Ballads Gold [Flac]\09 - Damn Yankees - High Enough.wav

     Peak level 98.8 %
     Extraction speed 0.7 X
     Track quality 100.0 %
     Test CRC 08026EAE
     Copy CRC 08026EAE
     Accurately ripped (confidence 2)  [06548314]
     Copy OK

Track 10

     Filename C:\Users\el gagnoss\Music\Playlists\power ballads\Power Ballads Gold [Flac]\10 - Queensryche - Silent Lucidity.wav

     Peak level 98.8 %
     Extraction speed 0.7 X
     Track quality 99.9 %
     Test CRC 04DC6471
     Copy CRC 04DC6471
     Accurately ripped (confidence 2)  [28DEBAC9]
     Copy OK

Track 11

     Filename C:\Users\el gagnoss\Music\Playlists\power ballads\Power Ballads Gold [Flac]\11 - Extreme - More Than Words.wav

     Peak level 98.8 %
     Extraction speed 0.9 X
     Track quality 100.0 %
     Test CRC 2E50EDC4
     Copy CRC 2E50EDC4
     Accurately ripped (confidence 2)  [581D7FE8]
     Copy OK

Track 12

     Filename C:\Users\el gagnoss\Music\Playlists\power ballads\Power Ballads Gold [Flac]\12 - Firehouse - Love Of A Lifetime.wav

     Pre-gap length  0:00:02.46

     Peak level 83.1 %
     Extraction speed 0.9 X
     Track quality 100.0 %
     Test CRC 70593F23
     Copy CRC 70593F23
     Accurately ripped (confidence 2)  [3D7A35F4]
     Copy OK

Track 13

     Filename C:\Users\el gagnoss\Music\Playlists\power ballads\Power Ballads Gold [Flac]\13 - Nelson - Only Time Will Tell.wav

     Pre-gap length  0:00:10.93

     Peak level 91.2 %
     Extraction speed 1.0 X
     Track quality 100.0 %
     Test CRC D06EE4BF
     Copy CRC D06EE4BF
     Accurately ripped (confidence 2)  [1AF4EEAC]
     Copy OK

Track 14

     Filename C:\Users\el gagnoss\Music\Playlists\power ballads\Power Ballads Gold [Flac]\14 - Saigon Kick - Love Is On The Way.wav

     Peak level 96.6 %
     Extraction speed 0.9 X
     Track quality 99.9 %
     Test CRC 95F7DBC1
     Copy CRC 95F7DBC1
     Accurately ripped (confidence 2)  [60FDBF09]
     Copy OK

Track 15

     Filename C:\Users\el gagnoss\Music\Playlists\power ballads\Power Ballads Gold [Flac]\15 - Meat Loaf - I'd Do Anything For Love (But I Won't Do That).wav

     Peak level 96.6 %
     Extraction speed 1.0 X
     Track quality 100.0 %
     Test CRC 2FBC5520
     Copy CRC 2FBC5520
     Accurately ripped (confidence 2)  [69CE24DE]
     Copy OK

All tracks accurately ripped

No errors occurred

End of status report
 

Отчёт auCDtect:

Код:

-----------------------

DON'T MODIFY THIS FILE

-----------------------

PERFORMER: auCDtect Task Manager, ver. 1.5.1RC6 build 1.5.1.7
Copyright (c) 2008-2010 y-soft. All rights reserved
http://y-soft.org

ANALYZER: auCDtect: CD records authenticity detector, version 0.8.2
Copyright (c) 2004 Oleg Berngardt. All rights reserved.
Copyright (c) 2004 Alexander Djourik. All rights reserved.

FILE: 15 - Meat Loaf - I'd Do Anything For Love (But I Won't Do That).flac
  Size: 46547945 Hash: 01E8D0EC2FF6279AD798380645E469B2 Accuracy: -m0
  Conclusion: CDDA 100%
  Signature: 7D20D2389B93708DCB98766CBB42578F44896929
FILE: 14 - Saigon Kick - Love Is On The Way.flac
  Size: 30599481 Hash: 8AFF7ACF4924E2902A7DA5511FAA1A33 Accuracy: -m0
  Conclusion: CDDA 100%
  Signature: 058139DEB7369FF51A3A81CA3DAF3305777653D6
FILE: 13 - Nelson - Only Time Will Tell.flac
  Size: 38377999 Hash: A484788CD69D965736C3D24024B3B729 Accuracy: -m0
  Conclusion: CDDA 100%
  Signature: E0B6AC491B794A99ACCCA03B7699F3F2FDD1615E
FILE: 12 - Firehouse - Love Of A Lifetime.flac
  Size: 37500558 Hash: 9BA21562BD636A7FBFFE36B30E60220C Accuracy: -m0
  Conclusion: CDDA 100%
  Signature: 382F066F64B74CE0B818CD328CBF07E254D523ED
FILE: 11 - Extreme - More Than Words.flac
  Size: 32390053 Hash: ADD6C62BCBA6E809487B5AAD62AFD71A Accuracy: -m0
  Conclusion: CDDA 99%
  Signature: 7DD29667EEDCF6FAF823E5C33031913D983ADA86
FILE: 10 - Queensryche - Silent Lucidity.flac
  Size: 40429024 Hash: F63BA93AAD7B83A52B54C4648C613CE4 Accuracy: -m0
  Conclusion: CDDA 100%
  Signature: 294029DC17FF00D706F667C00E57884B5A1F645F
FILE: 09 - Damn Yankees - High Enough.flac
  Size: 34848077 Hash: B16D34D7A59E9F3446F70C806D71BB3E Accuracy: -m0
  Conclusion: CDDA 100%
  Signature: 05CBFCD959575F9B450458020D6CBE6359417205
FILE: 08 - Slaughter - Fly To The Angels.flac
  Size: 40828981 Hash: C27BF6CF4A25243C5936B8A51C8384BE Accuracy: -m0
  Conclusion: CDDA 100%
  Signature: 644EE93BA28F5C96D5878A15D049AA0335DFEA84
FILE: 07 - L.A. Guns - The Ballad Of Jayne.flac
  Size: 34067630 Hash: A47FAA5710A310A9E69FFE2CE55C8FCB Accuracy: -m0
  Conclusion: CDDA 100%
  Signature: FD3765277AE9D158B93161C2F565E78509771C26
FILE: 06 - Skid Row - I Remember You.flac
  Size: 37839377 Hash: 628F0BA7FBF3F654006D3761AED4FC31 Accuracy: -m0
  Conclusion: CDDA 100%
  Signature: DAFF7009E2503115048C0B155D6F29A2164F7C5D
FILE: 05 - Tesla - Love Song.flac
  Size: 35681744 Hash: 3CD7503483C5ADE5A0DE7F6CD0B68635 Accuracy: -m0
  Conclusion: CDDA 100%
  Signature: 78DF1FC8917000A7E00A3C60AE122950D3AB0BD3
FILE: 04 - Bad English - When I See You Smile.flac
  Size: 31713879 Hash: 83AC1372F2B99C89BA3F486B440C5A50 Accuracy: -m0
  Conclusion: CDDA 100%
  Signature: 083AF164B666236356E763194AA7E7681CF4B369
FILE: 03 - Kix - Don't Close Your Eyes.flac
  Size: 30525753 Hash: AB28A1CB3AB69EAF83115D6FCCE511C1 Accuracy: -m0
  Conclusion: CDDA 100%
  Signature: FF220E2FD67BE77AAAA7EECC5C6FE2BA016248B7
FILE: 02 - Warrant - Heaven.flac
  Size: 28831465 Hash: 09AE85A63D2381133A975B06B782B08A Accuracy: -m0
  Conclusion: CDDA 99%
  Signature: 3143C3000DED8D676F28DA56B64B5FCCE41CC3A1
FILE: 01 - Winger - Headed For A Heartbreak.flac
  Size: 39204831 Hash: AF8B301659E60F8FB25BB52BDC49E671 Accuracy: -m0
  Conclusion: CDDA 100%
  Signature: 0308456232837BB79A4D4EA29848613292936CF7
 
Детали торрента:
Название:VA - Power Ballads - Gold 2CD (2005) [FLAC|Lossless]<Hard Rock>
Дата добавления:02 Янв 2014 11:39:31
Размер:961 MB
Раздают:2
Качают:0
Форум:Hard Rock (Lossless)

All rights reserved © 2015-2019