TORRENTS45.XYZ

Скачать Михаил Задорнов. Задорнов больше, чем Задорнов (2014.01.01) SATRip


Михаил Задорнов. Задорнов больше, чем Задорнов (2014.01.01) SATRip
Режиссер / Телекомпания: ТВЦ
Русское название: Михаил Задорнов
Год выпуска: 2014
Жанр: Юмористический концерт, сатира

Описание:
"Задорнов больше, чем Задорнов". Михаилу Задорнову, знаменитому сатирику, всегда не хватает того, чего он уже достиг. Он всегда был "безграничен". Это и учёный-исследователь, и историк, и лингвист, и фольклорист, и философ, и телевизионный продюсер. На свои средства открыл публичную библиотеку. Он все время к чему-то стремится, за ним просто не угонишься!

Режиссёр: Константин Владимиров

Продолжительность: 01:19:11

Видеокодек: XviD
Битрейт видео: 1599 kb/s
Размер кадра: 704x400
Качество видео: SATRip
Аудиокодек: MP3, 2 ch
Битрейт аудио: 128 kb/s

MI

Код:
Общее
Полное имя                               : D:\НЕ УДАЛЯТЬ!!!\Михаил Задорнов. Задорнов больше, чем Задорнов (2014.01.01).avi
Формат                                   : AVI
Формат/Информация                        : Audio Video Interleave
Размер файла                             : 984 Мбайт
Продолжительность                        : 1 ч. 19 м.
Общий поток                              : 1737 Кбит/сек
Программа кодирования                    : VirtualDubMod 1.5.10.3 | (build 2550/release)
Библиотека кодирования                   : VirtualDubMod build 2550/release

Видео
Идентификатор                            : 0
Формат                                   : MPEG-4 Visual
Профиль формата                          : Advanced Simple@L5
Параметр BVOP формата                    : 2
Параметр QPel формата                    : Нет
Параметр GMC формата                     : Без точки перехода
Параметр матрицы формата                 : Default (MPEG)
Идентификатор кодека                     : XVID
Идентификатор кодека/Подсказка           : XviD
Продолжительность                        : 1 ч. 19 м.
Битрейт                                  : 1599 Кбит/сек
Ширина                                   : 704 пикселя
Высота                                   : 400 пикселей
Соотношение сторон                       : 16:9
Частота кадров                           : 25,000 кадров/сек
Цветовое пространство                    : YUV
Субдискретизация насыщенности            : 4:2:0
Битовая глубина                          : 8 бит
Тип развёртки                            : Прогрессивная
Метод сжатия                             : С потерями
Бит/(Пиксели*Кадры)                      : 0.227
Размер потока                            : 906 Мбайт (92%)
Библиотека кодирования                   : XviD 1.2.1 (UTC 2008-12-04)

Аудио
Идентификатор                            : 1
Формат                                   : MPEG Audio
Версия формата                           : Version 1
Профиль формата                          : Layer 3
Идентификатор кодека                     : 55
Идентификатор кодека/Подсказка           : MP3
Продолжительность                        : 1 ч. 19 м.
Вид битрейта                             : Постоянный
Битрейт                                  : 128 Кбит/сек
Каналы                                   : 2 канала
Частота                                  : 48,0 КГц
Метод сжатия                             : С потерями
Размер потока                            : 72,5 Мбайт (7%)
Выравнивание                             : Соединение по промежуткам
Продолжительность промежутка             : 40  мс. (1,00 видеокадр)
Время предзагрузки промежутка            : 504  мс.
Библиотека кодирования                   : LAME3.99r
Настройки программы                      : -m s -V 4 -q 2 -lowpass 17 -b 128
Скриншоты:


Михаил Задорнов на Torrents45.xyz
Детали торрента:
Название:Михаил Задорнов. Задорнов больше, чем Задорнов (2014.01.01) SATRip
Дата добавления:01 Янв 2014 19:55:18
Размер:984 MB
Раздают:
Качают:0
Форум:Сатирики

All rights reserved © 2015-2019