TORRENTS45.XYZ

Скачать monochrome-coat - 15 альбомов (2009-2014) Touhou Vocal /Doujin/ [FLAC|Lossless] <J-Pop, J-Rock>



monochrome-coat


Кодек: FLAC
Битрейт: lossless
Страна: Япония
Тип издания: Doujin
Формат: Touhou Vocal
Жанр: J-Pop, J-Rock
Исполнители: めらみぽっぷ (Meramipop), IZNA, nayuta, Pine Tree, OtsuP, mono, Sepia


AdamKadmon || monochrome-coat || Sally || Tsugumi

2009.12.30 (MCCD-001) Euphorbia (C77)

Трeклист:

[03:51] 01. パインツリー - U.N.オーエンは彼女なのか?
[04:13] 02. Ne;on - once upon a time
[03:37] 03. パインツリー - ネクロファンタジア
[05:11] 04. maelock - E.RAiNBOW ver2.0 (+Nu Rave remixi)
[03:38] 05. sepia - 広有射怪鳥事 ~ Till When?
[04:29] 06. パインツリー - ヴォヤージュ 1969
[03:36] 07. パインツリー - 上海紅茶館 ~ Chinese Tea ~
[04:11] 08. ばん - 枯葉
[04:39] 09. Sepia - さくらさくら ~ Japanize Dream...
[04:22] 10. めらみぽっぷ - PROMiSE

Прoдолжительность: 00:00:41:52

Отчёт AccurateRip

Код:

[CUETools log; Date: 28.01.2015 22:29:02; Version: 2.1.5]
[CTDB TOCID: ziiQNjqIosBiNhX37Z8cUkKvjk4-] disk not present in database.
[AccurateRip ID: 000f96f1-007d2390-6d09d00a] disk not present in database.

Track Peak [ CRC32  ] [W/O NULL]
 --   97,9 [8D53C533] [B8BACBA6]
 01   97,9 [D92A7BDF] [675EBA4F]
 02   96,8 [7856C310] [68898F61]
 03   97,9 [4C17E81B] [1B12284D]
 04   96,8 [32E8E5A4] [DA6740E0]
 05   96,8 [CA2CA4FF] [B5DBECE0]
 06   96,8 [5BAC3358] [67426D17]
 07   96,8 [019E96D8] [691A9B7A]
 08   96,8 [655A54C7] [58813AF8]
 09   96,8 [F61D6393] [7E23AB38]
 10   97,9 [9609E9A6] [61396307]

Отчёт auCDtect Task Manager

Код:

-----------------------

DON'T MODIFY THIS FILE

-----------------------

PERFORMER: auCDtect Task Manager, ver. 1.6.0 RC1 build 1.6.0.1
Copyright (c) 2008-2010 y-soft. All rights reserved
http://y-soft.org

ANALYZER: auCDtect: CD records authenticity detector, version 0.8.2
Copyright (c) 2004 Oleg Berngardt. All rights reserved.
Copyright (c) 2004 Alexander Djourik. All rights reserved.

FILE: 10. めらみぽっぷ — PROMiSE.flac
  Size: 38174015 Hash: CF90355A48E164CC4DC398C6868F7E63 Accuracy: -m0
  Conclusion: CDDA 99%
  Signature: BF7B2F5E175B8594E3588E994119A721CEB5DFE5
FILE: 09. Sepia — さくらさくら ~ Japanize Dream.flac
  Size: 37526831 Hash: DD4B4015692FF4564DF56D2AC7AA57AC Accuracy: -m0
  Conclusion: CDDA 100%
  Signature: ED879E880E67118B49E0796958AB8F5F6EE11AA6
FILE: 08. ばん — 枯葉.flac
  Size: 30855338 Hash: EFCF84C54A499A58B293C3BFFA726352 Accuracy: -m0
  Conclusion: CDDA 100%
  Signature: BFA48953D3686912C5AD904483A6060CA2C628C7
FILE: 07. パインツリー — 上海紅茶館 ~ Chinese Tea ~.flac
  Size: 26603959 Hash: A2CBD21D1064196CBF952F4425BE2B74 Accuracy: -m0
  Conclusion: CDDA 100%
  Signature: 73FB9689FAB69E915B58704CC6DA111F8B43E5C7
FILE: 06. パインツリー — ヴォヤージュ 1969.flac
  Size: 36003055 Hash: EF4694F54B0C9F67362FD17675D9F94E Accuracy: -m0
  Conclusion: CDDA 100%
  Signature: 7FA28C901A2120036B483BBDA4B99C7FA4EA9332
FILE: 05. sepia — 広有射怪鳥事 ~ Till When_.flac
  Size: 31019906 Hash: 2CDF5883DBEC55C462F03817435747AE Accuracy: -m0
  Conclusion: CDDA 100%
  Signature: 316695387EC64EA13E4E93FA9253EF6B7F92C8D2
FILE: 04. maelock — E.RAiNBOW ver2.0 (+Nu Rave remixi).flac
  Size: 43223301 Hash: D25C47B46F7403F236B2A75B6BD7B388 Accuracy: -m0
  Conclusion: CDDA 100%
  Signature: 46F5E637BA06ADC17115B22FE403D244B5FA85B8
FILE: 03. パインツリー — ネクロファンタジア.flac
  Size: 29442975 Hash: 9A888F074D4ED8235AE4800C5D359F73 Accuracy: -m0
  Conclusion: CDDA 99%
  Signature: 22FBC4B4686792E74CDD02A9CCF9C66E2DE77F8B
FILE: 02. Ne;on — once upon a time.flac
  Size: 34933547 Hash: 056CF95167A3BEB1122D52A8F912ABE2 Accuracy: -m0
  Conclusion: CDDA 100%
  Signature: 250A3D1381BF81351CFB9A48713C3FAA3D2C915F
FILE: 01. パインツリー — U.N.オーエンは彼女なのか_.flac
  Size: 29691789 Hash: 102BCF21E7781AFDBFD5ED99F8CA8AE9 Accuracy: -m0
  Conclusion: CDDA 100%
  Signature: 9C462BFC36B23B197B4949B82B2DE14E3F8DB0FD

2010.03.14 (MCCD-002) Dearest...from (Reitaisai 7)

Трeклист:

[04:05] 01. パインツリー - 蠢々秋月 ~ Mooned Insect
[03:26] 02. Sepia - 夜雀の歌声 ~ Night Bird
[04:51] 03. Ne;on - Glorious Future
[04:01] 04. 津軽りんご - Smaragdus -SideA
[06:26] 05. itosayo - captain murasa(sorafune mix)
[04:34] 06. プラスもなか - moon drop
[03:11] 07. パインツリー - 幻視の夜 ~ Ghostly Eyes
[05:23] 08. Sepia - 幽霊楽団 ~ Phantom Ensemble
[03:58] 09. めらみぽっぷ - スカーレットラビリンス
[08:16] 10. oiko - 魂の道標

Прoдолжительность: 00:00:48:16

Отчёт AccurateRip

Код:

[CUETools log; Date: 28.01.2015 22:29:08; Version: 2.1.5]
Padded some input files to a frame boundary.
[CTDB TOCID: ._ZYiFAis7yWAx4yQIRHVxVxCCw-] found.
Track | CTDB Status
  1   | (0/1) No match
  2   | (0/1) No match
  3   | (0/1) No match
  4   | (0/1) No match
  5   | (0/1) No match
  6   | (0/1) No match
  7   | (0/1) No match
  8   | (0/1) No match
  9   | (0/1) No match
 10   | (0/1) No match
[AccurateRip ID: 0010dd03-0088bcff-8a0b500a] disk not present in database.

Track Peak [ CRC32  ] [W/O NULL]
 --   97,9 [0114FC13] [FB565CF6]
 01   97,9 [F5ADF6A5] [203E68F2]
 02   96,9 [88666E34] [9A490BE7]
 03   96,9 [1A83FE09] [F21F0464]
 04   96,2 [7C0933E2] [57C05E13]
 05   96,9 [9BF7F624] [F2754C32]
 06   95,8 [8511A52A] [0FA93151]
 07   97,9 [C2745195] [139F721F]
 08   96,9 [97B0A997] [5D411207]
 09   96,9 [4FB6B57B] [70BF1D3C]
 10   96,9 [B9546A1D] [A0898FBA]

Отчёт auCDtect Task Manager

Код:

-----------------------

DON'T MODIFY THIS FILE

-----------------------

PERFORMER: auCDtect Task Manager, ver. 1.6.0 RC1 build 1.6.0.1
Copyright (c) 2008-2010 y-soft. All rights reserved
http://y-soft.org

ANALYZER: auCDtect: CD records authenticity detector, version 0.8.2
Copyright (c) 2004 Oleg Berngardt. All rights reserved.
Copyright (c) 2004 Alexander Djourik. All rights reserved.

FILE: 10. oiko — 魂の道標.flac
  Size: 62360074 Hash: 1DC83A0B8F7EB2576399102442D0C6E2 Accuracy: -m0
  Conclusion: CDDA 100%
  Signature: 3D0A9270E04127D207771A900F6C87F259D95A8E
FILE: 09. めらみぽっぷ — スカーレットラビリンス.flac
  Size: 33395261 Hash: 86DE39A49B3B2DF4A00043F2DC9FC1C7 Accuracy: -m0
  Conclusion: CDDA 100%
  Signature: 34A80917887DD111BF9708CFFD78D47DA3F01F44
FILE: 08. Sepia — 幽霊楽団 ~ Phantom Ensemble.flac
  Size: 40447690 Hash: A11C4767D99D3D7281C84CC715757738 Accuracy: -m0
  Conclusion: CDDA 100%
  Signature: 7D2DB25F46FBAAE4B3CEC73F830C33A793346E58
FILE: 07. パインツリー — 幻視の夜 ~ Ghostly Eyes.flac
  Size: 27230286 Hash: E6EA2217EF375602B67A4B7A41872FF5 Accuracy: -m0
  Conclusion: CDDA 99%
  Signature: D5C447BBA3BF110B12A3A64FAB8177AD361460F5
FILE: 06. プラスもなか — moon drop.flac
  Size: 38543717 Hash: 037222264BEAEACBABF8687B49039773 Accuracy: -m0
  Conclusion: CDDA 100%
  Signature: 62C0027339DB8E09493149196C330B6A9479D350
FILE: 05. itosayo — captain murasa(sorafune mix).flac
  Size: 48770475 Hash: EF9DC4A1CD62F9206437D048CE95D8B4 Accuracy: -m0
  Conclusion: CDDA 100%
  Signature: 2E32327E2A2A44CFB1F7B90EFBB5B1F132EAEA0B
FILE: 04. 津軽りんご — Smaragdus -SideA.flac
  Size: 34436019 Hash: EB5A3503DC74CDB720C74290DC776787 Accuracy: -m0
  Conclusion: CDDA 100%
  Signature: F481F155B02113FD51515C3CB9ACC6AD2FA71976
FILE: 03. Ne;on — Glorious Future.flac
  Size: 38004003 Hash: 05D0E3B3F84103763574BDCC6600EA21 Accuracy: -m0
  Conclusion: CDDA 100%
  Signature: CD12183DFD9A58410499326EB920275705658E87
FILE: 02. Sepia — 夜雀の歌声 ~ Night Bird.flac
  Size: 28568000 Hash: E27C2A5625B5A723ED91AFC23AF1CA59 Accuracy: -m0
  Conclusion: CDDA 100%
  Signature: 7D0016D2D88F07FE1D2533B3AB40EA1ACC136918
FILE: 01. パインツリー — 蠢々秋月 ~ Mooned Insect.flac
  Size: 32987676 Hash: CEF1B9DCF5BDF0B07EFCB0418CA22E28 Accuracy: -m0
  Conclusion: CDDA 100%
  Signature: 2FAF9EF7828D362B9A99A80A2FFD566BDD73EAA4

2010.08.14 (MCCD-003) UN IVY (C78)

Трeклист:

[01:45] 01. Canopus Sounds - 法界の火
[03:49] 02. めらみぽっぷ - Black Parrot
[04:02] 03. 池田 奨 - 桜に託す恋の歌
[04:09] 04. 乙 - 明治十七年の上海アリス -02 RMX-
[03:38] 05. めらみぽっぷ - UNCONSCIOUS
[04:08] 06. Sepia - ツェペシュの幼き末裔
[03:32] 07. IZNA - ゆらゆら
[02:10] 08. Canopus Sounds - 魔界地方都市エソテリア
[05:36] 09. プラスもなか - innocent cherry

Прoдолжительность: 00:00:32:52

Отчёт AccurateRip

Код:

[CUETools log; Date: 28.01.2015 22:29:13; Version: 2.1.5]
Padded some input files to a frame boundary.
[CTDB TOCID: JLCoGh890RFTnTanpfjeZOZQ5V8-] found.
Track | CTDB Status
  1   | (0/2) No match
  2   | (0/2) No match
  3   | (0/2) No match
  4   | (0/2) No match
  5   | (0/2) No match
  6   | (0/2) No match
  7   | (0/2) No match
  8   | (0/2) No match
  9   | (0/2) No match
[AccurateRip ID: 000aa3be-004f8556-7807b409] disk not present in database.

Track Peak [ CRC32  ] [W/O NULL]
 --   97,9 [5B7B2C30] [972D101E]
 01   96,8 [0E7B5E13] [DD1CEB6B]
 02   97,9 [94EF8385] [9F53A77C]
 03   96,8 [60B20D0D] [F1A72DCC]
 04   97,9 [BC35592C] [CBE505F5]
 05   96,8 [5AD3F798] [6CF706EC]
 06   97,9 [B3A359BA] [F57C0E9A]
 07   97,9 [5239E686] [B7FD6DCA]
 08   96,8 [4699528D] [8CC3FA04]
 09   96,8 [F734681E] [DF790DA8]

Отчёт auCDtect Task Manager

Код:

-----------------------

DON'T MODIFY THIS FILE

-----------------------

PERFORMER: auCDtect Task Manager, ver. 1.6.0 RC1 build 1.6.0.1
Copyright (c) 2008-2010 y-soft. All rights reserved
http://y-soft.org

ANALYZER: auCDtect: CD records authenticity detector, version 0.8.2
Copyright (c) 2004 Oleg Berngardt. All rights reserved.
Copyright (c) 2004 Alexander Djourik. All rights reserved.

FILE: 09. プラスもなか — innocent cherry.flac
  Size: 46462715 Hash: 9DF2F1C0C83ADE400174787D5A02B6AA Accuracy: -m0
  Conclusion: CDDA 100%
  Signature: 6205EBC2ABABBD4EE7BA4B062D1EE18003AB7317
FILE: 08. Canopus Sounds — 魔界地方都市エソテリア.flac
  Size: 15659078 Hash: 1A54C820ECCFEA286738F1FA951BE35C Accuracy: -m0
  Conclusion: CDDA 99%
  Signature: 8B0C319E4C6D91D46DCC3009D6D9B22A08F986D5
FILE: 07. IZNA — ゆらゆら.flac
  Size: 29976582 Hash: CEB0561C233FE145CA469D314A8E27D7 Accuracy: -m0
  Conclusion: CDDA 99%
  Signature: 9E133C7FF5CFCFC721D5E6B4B38821B9AA8C477B
FILE: 06. Sepia — ツェペシュの幼き末裔.flac
  Size: 35018612 Hash: 95C23A782A66CBB16E9C5A9CB46106E4 Accuracy: -m0
  Conclusion: CDDA 100%
  Signature: E0987340BF8CCEC162FAE26E3799A3A42F78FF3E
FILE: 05. めらみぽっぷ — UNCONSCIOUS.flac
  Size: 30586957 Hash: ED3837775373C6D573518F579AB7674F Accuracy: -m0
  Conclusion: CDDA 100%
  Signature: 042DA985338DE147162D29EC4E7B948B879BC960
FILE: 04. 乙 — 明治十七年の上海アリス -02 RMX-.flac
  Size: 27918180 Hash: D1FB4EE50BB9E8A42B8FB4571699391B Accuracy: -m0
  Conclusion: CDDA 100%
  Signature: D5608118B80B2BB64E54447E826C585408EDE39D
FILE: 03. 池田 奨 — 桜に託す恋の歌.flac
  Size: 33596919 Hash: FD89DCB4E1116541C180FB5A66ECC2EE Accuracy: -m0
  Conclusion: CDDA 94%
  Signature: 90E3240A89DB332B9DD255DA36D0F54DB3414859
FILE: 02. めらみぽっぷ — Black Parrot.flac
  Size: 31160802 Hash: EC62FB061B339CD9703184C444ADBE5F Accuracy: -m0
  Conclusion: CDDA 100%
  Signature: 8DA0823C81DA1DA9133367388EBD82B62407F3B2
FILE: 01. Canopus Sounds — 法界の火.flac
  Size: 11076263 Hash: 14DF8689F0BADD1EDF23140791CA92E5 Accuracy: -m0
  Conclusion: CDDA 99%
  Signature: 6CBCA2C5749FDAC3EA6116FF0931F5E10F94394F

2010.12.30 (MCCD-004) Cutie POP's Tone (C79)

Трeклист:

[04:13] 01. nayuta - hikari
[04:32] 02. 池田奨 - Prayer
[03:58] 03. めらみぽっぷ - いたず☆ラヴ
[03:19] 04. プラスもなか - るるるるん♪
[04:26] 05. めらみぽっぷ - Alchiba
[04:52] 06. 癒月 - snow white
[06:14] 07. 39* - Isolation of shutter
[03:45] 08. プラスもなか - time sweep

Прoдолжительность: 00:00:35:23

Отчёт AccurateRip

Код:

[CUETools log; Date: 28.01.2015 22:29:19; Version: 2.1.5]
Padded some input files to a frame boundary.
[CTDB TOCID: esy7USR3l0ODd9p00m79lXE7I_4-] found.
Track | CTDB Status
  1   | (0/1) No match
  2   | (0/1) No match
  3   | (0/1) No match
  4   | (0/1) No match
  5   | (0/1) No match
  6   | (0/1) No match
  7   | (0/1) No match
  8   | (0/1) No match
[AccurateRip ID: 000a9f8c-00474bce-74084b08] disk not present in database.

Track Peak [ CRC32  ] [W/O NULL]
 --   97,9 [9FA283E5] [C3BB9061]
 01   97,9 [0D9F6D02] [012DFFF9]
 02   97,9 [A20CCB21] [3CCB4504]
 03   97,9 [1FC51A74] [D5807CE6]
 04   97,9 [CED973B1] [66E27ED6]
 05   97,9 [D10185ED] [68EBCE6B]
 06   94,6 [34FB7B6F] [5C7E0D57]
 07   97,9 [ECC38144] [1A6D1754]
 08   97,9 [B216F880] [899B2E9D]

Отчёт auCDtect Task Manager

Код:

-----------------------

DON'T MODIFY THIS FILE

-----------------------

PERFORMER: auCDtect Task Manager, ver. 1.6.0 RC1 build 1.6.0.1
Copyright (c) 2008-2010 y-soft. All rights reserved
http://y-soft.org

ANALYZER: auCDtect: CD records authenticity detector, version 0.8.2
Copyright (c) 2004 Oleg Berngardt. All rights reserved.
Copyright (c) 2004 Alexander Djourik. All rights reserved.

FILE: 08. プラスもなか — time sweep.flac
  Size: 29845372 Hash: D75B514E1383CE885135E685E9F79EB0 Accuracy: -m0
  Conclusion: CDDA 100%
  Signature: B1B2293EF3CE706D2F90A84DECCC772497AF59DE
FILE: 07. 39_ — Isolation of shutter.flac
  Size: 49725114 Hash: A89CB0EECCA7162C72F0D809EA995814 Accuracy: -m0
  Conclusion: CDDA 100%
  Signature: 3DEBB1BE821770A746F480AF07F1F02C33DD6E5B
FILE: 06. 癒月 — snow white.flac
  Size: 36924404 Hash: 26600B008C389B62577FAE14B6572195 Accuracy: -m0
  Conclusion: CDDA 100%
  Signature: 664DF6915FCA6F196BA18AAE1ED9BFC333339E91
FILE: 05. めらみぽっぷ — Alchiba.flac
  Size: 34343515 Hash: C59BD200F6364B51ABA83D00F3851C1F Accuracy: -m0
  Conclusion: CDDA 99%
  Signature: 2BAA20E405A15847CE8143ABC923DEACA058688F
FILE: 04. プラスもなか — るるるるん♪.flac
  Size: 26059301 Hash: DEB4A4EBCD0F72734814AC12E17097FF Accuracy: -m0
  Conclusion: CDDA 100%
  Signature: A52CFA59F4A4CE5ABEE927A80EE2EC558B8023DC
FILE: 03. めらみぽっぷ — いたず☆ラヴ.flac
  Size: 32700455 Hash: 89F2B94F2A3F31CAEA621CC4066EBD68 Accuracy: -m0
  Conclusion: CDDA 100%
  Signature: 680C15986376F6DDADBD293919DE999F2E532199
FILE: 02. 池田奨 — Prayer.flac
  Size: 35436812 Hash: 9A89A5B1FC779E875528853B740C3778 Accuracy: -m0
  Conclusion: CDDA 100%
  Signature: 281F5B4EB7E68C31A65810BF56E0BA24FACC5D67
FILE: 01. nayuta — hikari.flac
  Size: 34519828 Hash: 3206CC748E0123E00297A0BC5206828F Accuracy: -m0
  Conclusion: CDDA 100%
  Signature: 69FE765F4FA42941ABA4C02A2050D2FF092CEC19

2011.05.08 (MCCD-005) Memorial (Reitaisai 8)

Трeклист:

[04:18] 01. めらみぽっぷ - PROMiSE -Memorial mix-
[04:03] 02. めらみぽっぷ - COLD CASE
[04:25] 03. めらみぽっぷ - 回想ノスタルジア
[03:58] 04. めらみぽっぷ - スカーレットラビリンス -Memorial mix-
[03:55] 05. めらみぽっぷ - いたず☆ラヴ ver.2
[03:49] 06. めらみぽっぷ - Black Parrot
[03:57] 07. めらみぽっぷ - Alchiba -02 RMX
[04:36] 08. めらみぽっぷ - Lost memories
[03:38] 09. めらみぽっぷ - UNCONSCIOUS -Memorial mix-
[07:56] 10. めらみぽっぷ - fairy romance
[04:22] 11. Sepia - PROMiSE -Memorial mix- Off vocal
[04:00] 12. Sepia - スカーレットラビリンス -Memorial mix- Off vocal
[03:49] 13. パインツリー - Black Parrot Off vocal
[03:39] 14. Sepia - UNCONSCIOUS -Memorial mix- Off vocal

Прoдолжительность: 00:01:00:31

Отчёт AccurateRip

Код:

[CUETools log; Date: 28.01.2015 22:29:28; Version: 2.1.5]
Padded some input files to a frame boundary.
[CTDB TOCID: vFTw_VrViqNChx9BT_tgTfzpTbY-] disk not present in database.
[AccurateRip ID: 001ee250-014ba5f0-b80e2f0e] disk not present in database.

Track Peak [ CRC32  ] [W/O NULL]
 --   97,9 [2C0D862B] [12B5DCFD]
 01   97,9 [40896F5A] [29AD0758]
 02   97,9 [5EDFC408] [9613CC49]
 03   93,5 [06BCF549] [E478F1E6]
 04   97,9 [13DD459E] [9134F7C8]
 05   97,9 [D2070AEB] [68811DFD]
 06   93,5 [ED1F5C58] [321AB36B]
 07   97,9 [45EEF0BF] [FF468956]
 08   97,9 [F0E45C97] [2479B1F0]
 09   97,9 [91B2ABD8] [688685AE]
 10   97,9 [3A7C05A1] [DB37A001]
 11   97,9 [B4E433B4] [2C32BD80]
 12   97,9 [0A62A795] [850B9F10]
 13   93,5 [B1014D50] [DD9BEAB1]
 14   97,9 [B89D202E] [1D35FD4C]

Отчёт auCDtect Task Manager

Код:

-----------------------

DON'T MODIFY THIS FILE

-----------------------

PERFORMER: auCDtect Task Manager, ver. 1.6.0 RC1 build 1.6.0.1
Copyright (c) 2008-2010 y-soft. All rights reserved
http://y-soft.org

ANALYZER: auCDtect: CD records authenticity detector, version 0.8.2
Copyright (c) 2004 Oleg Berngardt. All rights reserved.
Copyright (c) 2004 Alexander Djourik. All rights reserved.

FILE: 14. Sepia — UNCONSCIOUS -Memorial mix- Off vocal.flac
  Size: 30040893 Hash: BBB704660BA339CD3FF15AAA043FB179 Accuracy: -m0
  Conclusion: CDDA 100%
  Signature: 39C1FFBBCAD5CD37B60C55BB214CEA7DADE7589B
FILE: 13. パインツリー — Black Parrot Off vocal.flac
  Size: 30807607 Hash: 4C0F6F8DF6F34AA51FD6173E2CC4DDFD Accuracy: -m0
  Conclusion: CDDA 100%
  Signature: 4C3833129FE54A29941B1F820C166C2A784577B1
FILE: 12. Sepia — スカーレットラビリンス -Memorial mix- Off vocal.flac
  Size: 32826118 Hash: 6A87D89250A73560FBD9F49C87E2BC16 Accuracy: -m0
  Conclusion: CDDA 100%
  Signature: CF3F3460E2910829D3A5E94397A96E665F61D570
FILE: 11. Sepia — PROMiSE -Memorial mix- Off vocal.flac
  Size: 36602829 Hash: E133F6530915AF25ED348AB761D66429 Accuracy: -m0
  Conclusion: CDDA 99%
  Signature: AF636F6A2DBEB22019F3B9A6981554C68290D53B
FILE: 10. めらみぽっぷ — fairy romance.flac
  Size: 58389733 Hash: 4F1C94E5AEBA21A2B45638F8865BE08F Accuracy: -m0
  Conclusion: CDDA 100%
  Signature: 18087D419A5C524FC4C3080D787FB15F31499C18
FILE: 09. めらみぽっぷ — UNCONSCIOUS -Memorial mix-.flac
  Size: 30091587 Hash: 8B8315DF7DF61DCAEDFA581B15D1CF0C Accuracy: -m0
  Conclusion: CDDA 100%
  Signature: 756DBA7CCC9E3E9893DEFF1393E8F7A50D65E343
FILE: 08. めらみぽっぷ — Lost memories.flac
  Size: 38721961 Hash: 3314EA03DAAF8DE6238F800000A19696 Accuracy: -m0
  Conclusion: CDDA 100%
  Signature: 367310A65360B26205A238AB7A7BD2655BF487DF
FILE: 07. めらみぽっぷ — Alchiba -02 RMX.flac
  Size: 33013127 Hash: 6A87C8864FA1AB65F3AD06125A44CDDA Accuracy: -m0
  Conclusion: MPEG 95%
  Signature: 06A9098E80897780727278E1DC1A4E6684224E1E
FILE: 06. めらみぽっぷ — Black Parrot.flac
  Size: 30873379 Hash: 8FA6BA60215CA863E102234A20A66516 Accuracy: -m0
  Conclusion: CDDA 100%
  Signature: CE5DB69BDA1C9C06D66DD1F330B788790A86B3F0
FILE: 05. めらみぽっぷ — いたず☆ラヴ ver.2.flac
  Size: 33526113 Hash: 716660CA4822429D3C3A1171679625F6 Accuracy: -m0
  Conclusion: CDDA 100%
  Signature: 598C64FD63D74E40D01FC0A27D10F5CB985FE0CA
FILE: 04. めらみぽっぷ — スカーレットラビリンス -Memorial mix-.flac
  Size: 32918732 Hash: 875F8E48B616DCDF56977BD543F54DAD Accuracy: -m0
  Conclusion: CDDA 99%
  Signature: D740685179471354CE345E0368A3C5CABCFB3E5C
FILE: 03. めらみぽっぷ — 回想ノスタルジア.flac
  Size: 37272032 Hash: 60EEF041BEC7D6F5A678496C31F2BA12 Accuracy: -m0
  Conclusion: CDDA 100%
  Signature: AF1D1459DB969FB69FFCDFF7E32A9491551DB9B7
FILE: 02. めらみぽっぷ — COLD CASE.flac
  Size: 33079879 Hash: 53179A7B2A2F673442F8613D856FE29F Accuracy: -m0
  Conclusion: CDDA 100%
  Signature: F91C0ECADB72539AEB0639FE7DB9E63C6E027E07
FILE: 01. めらみぽっぷ — PROMiSE -Memorial mix-.flac
  Size: 36645598 Hash: 26550DE1B6997F0FD4EC217586DE44B3 Accuracy: -m0
  Conclusion: CDDA 100%
  Signature: 1A4E6FD1241668370E6A08C960BB13A2D63D7E4B

Spectrograms

07. めらみぽっぷ — Alchiba -02 RMX.flac.Spectrogram

2011.08.13 (MCCD-006) OAR (C80)

Трeклист:

[04:50] 01. nayuta - 忘れてあげられるから。
[03:42] 02. めらみぽっぷ - Myway
[04:05] 03. IZNA - 終わらないあの鐘の音
[03:57] 04. めらみぽっぷ - empty dream
[03:30] 05. Hotori* - BLUE MELODY
[03:55] 06. nayuta - Game
[04:08] 07. プラスもなか - ユウセツ
[04:39] 08. 池田奨 - nevertheless
[03:40] 09. Sepia - 広有射怪鳥事 ~ Till When? Remix
[04:50] 10. Sepia - 忘れてあげられるから。-Off vocal-
[03:42] 11. mono & AdamKadmon - Myway -Off vocal-
[03:53] 12. mono - Game -Off vocal-

Прoдолжительность: 00:00:48:55

Отчёт AccurateRip

Код:

[CUETools log; Date: 28.01.2015 22:29:35; Version: 2.1.5]
Padded some input files to a frame boundary.
[CTDB TOCID: 3sDaugwlJ6KPuA8l0BpTKyhzdZo-] found.
Track | CTDB Status
  1   | (0/2) No match
  2   | (0/2) No match
  3   | (0/2) No match
  4   | (0/2) No match
  5   | (0/2) No match
  6   | (0/2) No match
  7   | (0/2) No match
  8   | (0/2) No match
  9   | (0/2) No match
 10   | (0/2) No match
 11   | (0/2) No match
 12   | (0/2) No match
[AccurateRip ID: 0015effa-00cc37ef-a00b770c] disk not present in database.

Track Peak [ CRC32  ] [W/O NULL]
 --   97,9 [9C020F69] [68AB5B37]
 01   97,9 [9D6EB0A2] [16A1D5B8]
 02   97,9 [866AC7FC] [A9A7E539]
 03   97,9 [BED65133] [C9039DE4]
 04   97,9 [F9D2F054] [58A65320]
 05   97,9 [5F96EE00] [D8E66478]
 06   97,9 [8BF6762D] [5D6A2087]
 07   97,9 [881BB81E] [B855B9CE]
 08   97,9 [D709CD62] [BD153B20]
 09   97,9 [0DE580AC] [57DC8707]
 10   97,9 [88E2DCAC] [CF661776]
 11   97,9 [F1815A7F] [CF0B1A56]
 12   97,9 [FC980F5C] [0DF91407]

Отчёт auCDtect Task Manager

Код:

-----------------------

DON'T MODIFY THIS FILE

-----------------------

PERFORMER: auCDtect Task Manager, ver. 1.6.0 RC1 build 1.6.0.1
Copyright (c) 2008-2010 y-soft. All rights reserved
http://y-soft.org

ANALYZER: auCDtect: CD records authenticity detector, version 0.8.2
Copyright (c) 2004 Oleg Berngardt. All rights reserved.
Copyright (c) 2004 Alexander Djourik. All rights reserved.

FILE: 12. mono — Game -Off vocal-.flac
  Size: 29798227 Hash: 3E19BF24FE6B71D7834211670E186D5D Accuracy: -m0
  Conclusion: CDDA 100%
  Signature: 301C4E20BF35D2208AE1CC74A782247E1ABADB0B
FILE: 11. mono & AdamKadmon — Myway -Off vocal-.flac
  Size: 27912149 Hash: A164509B1B2503494A3B295B16A859F9 Accuracy: -m0
  Conclusion: CDDA 100%
  Signature: B918893E5302B8E5906DFDCD801CDB571D0D6226
FILE: 10. Sepia — 忘れてあげられるから。-Off vocal-.flac
  Size: 39502167 Hash: ECA3AF7E298996C9D7F709466F9EB1EE Accuracy: -m0
  Conclusion: CDDA 100%
  Signature: FF5920BF65B133166794670678D5A3F7C7B289AB
FILE: 09. Sepia — 広有射怪鳥事 ~ Till When_ Remix.flac
  Size: 30877239 Hash: FCAB64128BB0E048705B247E351EA9F8 Accuracy: -m0
  Conclusion: CDDA 100%
  Signature: 34FF9AD1300442718446C3894B356ADF11B07997
FILE: 08. 池田奨 — nevertheless.flac
  Size: 32255417 Hash: 828037836F3C37D4F2887D3E4A7F51CA Accuracy: -m0
  Conclusion: CDDA 100%
  Signature: 272626860A46BB98F97E9BC026B6DDC455AE7CEA
FILE: 07. プラスもなか — ユウセツ.flac
  Size: 28819740 Hash: 1836BD7A060E32EA942FB1D238CD91FC Accuracy: -m0
  Conclusion: CDDA 100%
  Signature: 2CBADEF81A2292F336C29C0E23A37CE9ACE3F413
FILE: 06. nayuta — Game.flac
  Size: 30589280 Hash: 0D0F7ECF26A09897ED2812FB00946FD2 Accuracy: -m0
  Conclusion: CDDA 100%
  Signature: DFB07767AC3CF58AABB419260B91B0743F8D87FB
FILE: 05. Hotori_ — BLUE MELODY.flac
  Size: 25551837 Hash: 6E93FD12D0AD21136635BB50B5388B2E Accuracy: -m0
  Conclusion: CDDA 100%
  Signature: 08A5C48AF02CA838CB0FA101E9885DB38D474297
FILE: 04. めらみぽっぷ — empty dream.flac
  Size: 29782277 Hash: 6AFADC5D01A53DACD82370A81124BB77 Accuracy: -m0
  Conclusion: CDDA 100%
  Signature: 2CB1743041EF4882ECC40CA831D482272EFBBE42
FILE: 03. IZNA — 終わらないあの鐘の音.flac
  Size: 32197876 Hash: E710F4F8B61F5F9CC8FD70B04252EFD4 Accuracy: -m0
  Conclusion: CDDA 100%
  Signature: E967428C54C53E70FEB519917CF43D9AA599F474
FILE: 02. めらみぽっぷ — Myway.flac
  Size: 28354880 Hash: 1F9A686F68201D9C50C22DDD34A8212B Accuracy: -m0
  Conclusion: CDDA 100%
  Signature: DC448E7D80B77789D5DD8B9A89D3BC26FD7C36DA
FILE: 01. nayuta — 忘れてあげられるから。.flac
  Size: 39539201 Hash: D2D95A3BF1B171EE88CFB30DD9A325D0 Accuracy: -m0
  Conclusion: CDDA 100%
  Signature: 3DC1316DBFCE70A80E6014621379D26A4C45BD9A

2011.12.30 (MCCD-007) Purge (C81)

Трeклист:

[04:05] 01. めらみぽっぷ - Snow Fairy
[04:08] 02. めらみぽっぷ - Sweetheart
[03:53] 03. レジ - 失楽園
[04:16] 04. Hotori* - Pigment
[03:37] 05. レジ - 消え行く世界
[03:58] 06. プラスもなか - マジックショット
[04:00] 07. Hotori* - POISON DANCE
[04:24] 08. めらみぽっぷ - New Age
[04:21] 09. Sepia - 面影 ~ Instruments
[04:04] 10. Sepia - Snow Fairy ~ off vocal ver.
[04:09] 11. Sepia - マジックショット ~ off vocal ver.

Прoдолжительность: 00:00:44:59

Отчёт AccurateRip

Код:

[CUETools log; Date: 28.01.2015 22:29:42; Version: 2.1.5]
Padded some input files to a frame boundary.
[CTDB TOCID: auXCRm9cBHJg8yMm30opNK743tc-] found.
Track | CTDB Status
  1   | (0/2) No match
  2   | (0/2) No match
  3   | (0/2) No match
  4   | (0/2) No match
  5   | (0/2) No match
  6   | (0/2) No match
  7   | (0/2) No match
  8   | (0/2) No match
  9   | (0/2) No match
 10   | (0/2) No match
 11   | (0/2) No match
[AccurateRip ID: 001263b2-009f8b0e-930a8b0b] found.
Track   [  CRC   |   V2   ] Status
 01     [1ad85ba6|f18fffe6] (0+0/1) No match
 02     [bf341f61|2970585f] (0+0/1) No match
 03     [e4d6c9c8|977d8200] (0+0/1) No match
 04     [d76a6aa8|53c36e35] (0+0/1) No match
 05     [11acfe96|58371573] (0+0/1) No match
 06     [abe1a5c1|c641c050] (0+0/1) No match
 07     [bed56691|3d3d0d42] (0+0/1) No match
 08     [4e456ca7|5ad57315] (0+0/1) No match
 09     [277bc0ee|6b5ade50] (0+0/1) No match
 10     [a0289b29|cf73e1e8] (0+0/1) No match
 11     [a2405b7a|1f921927] (0+0/1) No match

Track Peak [ CRC32  ] [W/O NULL]
 --   97,9 [0746FE7F] [A91E2059]
 01   97,9 [1865C22F] [5E4CFF25]
 02   97,9 [B5EC83EC] [8B0892AD]
 03   97,9 [6FA51951] [307D0C1D]
 04   97,9 [71369319] [DF114AF5]
 05   97,9 [A8ACAF21] [BEC8E77A]
 06   97,9 [BB51BF47] [A329F7D5]
 07   97,9 [7E036084] [66CC2BBC]
 08   97,9 [73F114A7] [D9BB92DA]
 09   97,9 [26BE4373] [972EE8AC]
 10   97,9 [BBE52542] [C57A69A5]
 11   97,9 [963D4439] [7876BA7C]

Отчёт auCDtect Task Manager

Код:

-----------------------

DON'T MODIFY THIS FILE

-----------------------

PERFORMER: auCDtect Task Manager, ver. 1.6.0 RC1 build 1.6.0.1
Copyright (c) 2008-2010 y-soft. All rights reserved
http://y-soft.org

ANALYZER: auCDtect: CD records authenticity detector, version 0.8.2
Copyright (c) 2004 Oleg Berngardt. All rights reserved.
Copyright (c) 2004 Alexander Djourik. All rights reserved.

FILE: 11. Sepia — マジックショット ~ off vocal ver.flac
  Size: 33752627 Hash: 420EA2607716D94162D4A94A1DD140A0 Accuracy: -m0
  Conclusion: CDDA 100%
  Signature: FA8C8C82E87B5E1DF87DB5BAF827E32D577AA518
FILE: 10. Sepia — Snow Fairy ~ off vocal ver.flac
  Size: 35710823 Hash: A1E4377D8DED47A700A2A158B9B0D80B Accuracy: -m0
  Conclusion: CDDA 99%
  Signature: 13923476E77EF513D2BB6DA06FFE426555EA7615
FILE: 09. Sepia — 面影 ~ Instruments.flac
  Size: 30368204 Hash: 54078267DAC369A002CCD5166EC68780 Accuracy: -m0
  Conclusion: CDDA 100%
  Signature: CB8691F01FFD62A743850C18BEEAC23D171E51E5
FILE: 08. めらみぽっぷ — New Age.flac
  Size: 33628070 Hash: 4DA771725E1CC1565CEAC2FAEC15DD59 Accuracy: -m0
  Conclusion: CDDA 100%
  Signature: DB0499080A9419C532F4EDB19D2D3860B0FB8241
FILE: 07. Hotori_ — POISON DANCE.flac
  Size: 33462424 Hash: 6B6C59D3717B6B27C7987BB8A152C98F Accuracy: -m0
  Conclusion: CDDA 100%
  Signature: 6CE9DC8B3BB6335825BAE44FFBD8F19B59757B7D
FILE: 06. プラスもなか — マジックショット.flac
  Size: 32939945 Hash: B416742393CCC290AD9D0ABEDF3E1843 Accuracy: -m0
  Conclusion: CDDA 100%
  Signature: 81808443DD929EBE47AA3A82A695BF5AB27D3D93
FILE: 05. レジ — 消え行く世界.flac
  Size: 28041709 Hash: F6F06D62765C676689E7381D8F068CA4 Accuracy: -m0
  Conclusion: CDDA 100%
  Signature: 368A5464C32C26035513ADAE9F5DCB13D24D8721
FILE: 04. Hotori_ — Pigment.flac
  Size: 34702638 Hash: F684BD32B837DC7131D46D3992B41724 Accuracy: -m0
  Conclusion: CDDA 100%
  Signature: DF4DEB629FE1DAB1B77CDC540ECCF843C76B91D9
FILE: 03. レジ — 失楽園.flac
  Size: 30655937 Hash: 89DC07DD19B7FDC64CB813B7EB0A84F6 Accuracy: -m0
  Conclusion: CDDA 100%
  Signature: 0D1526DFC10D9580A3B58A337FCBC778B6950E51
FILE: 02. めらみぽっぷ — Sweetheart.flac
  Size: 35095225 Hash: BF4A58D75F2E04BFF73EE59D3506E5E2 Accuracy: -m0
  Conclusion: CDDA 100%
  Signature: 90FC6055062E151AD1767343F6C69C52E8AA5DC1
FILE: 01. めらみぽっぷ — Snow Fairy.flac
  Size: 35806411 Hash: A5C8C296540509ECA7CCECDF6F20CE97 Accuracy: -m0
  Conclusion: CDDA 100%
  Signature: EE3032EF25F89DA081428905C19526308640A231

2012.05.27 (MCCD-008) es (Reitaisai 9)

Трeклист:

[04:57] 01. めらみぽっぷ - escapism
[05:07] 02. めらみぽっぷ - SIN
[04:15] 03. めらみぽっぷ - Sの悲劇
[04:52] 04. めらみぽっぷ - 転生輪廻
[04:14] 05. めらみぽっぷ - 隠レン坊
[04:57] 06. めらみぽっぷ - PON!POKO!PON!
[04:19] 07. めらみぽっぷ - cathartic effect
[04:17] 08. めらみぽっぷ - desire
[04:24] 09. めらみぽっぷ - 幻影セレナーデ
[04:57] 10. Sepia - escapism ~ off vocal ver.
[05:10] 11. ワニ - SIN ~ off vocal ver.
[04:57] 12. 乙P - PON!POKO!PON! ~ off vocal ver.

Прoдолжительность: 00:00:56:31

Отчёт AccurateRip

Код:

[CUETools log; Date: 28.01.2015 22:29:51; Version: 2.1.5]
Padded some input files to a frame boundary.
[CTDB TOCID: k5WU.tN4xPDd9VV7d03Bono612c-] found.
Track | CTDB Status
  1   | (0/2) No match
  2   | (0/2) No match
  3   | (0/2) No match
  4   | (0/2) No match
  5   | (0/2) No match
  6   | (0/2) No match
  7   | (0/2) No match
  8   | (0/2) No match
  9   | (0/2) No match
 10   | (0/2) No match
 11   | (0/2) No match
 12   | (0/2) No match
[AccurateRip ID: 00192404-00e9e9c3-b50d3f0c] disk not present in database.

Track Peak [ CRC32  ] [W/O NULL]
 --   97,9 [8F471AEC] [2E50C7CD]
 01   97,9 [81B31549] [CF44C792]
 02   97,9 [0F783082] [52212D9C]
 03   97,9 [DE9D0129] [70AD812A]
 04   97,9 [F3D25CFF] [C9EF8E93]
 05   97,9 [B5B5549B] [ED48982D]
 06   97,9 [3ABADD9E] [534FB0DB]
 07   97,9 [248BD345] [A8A7A7C9]
 08   97,9 [A9A856A4] [7C78DBE3]
 09   97,9 [507FAF58] [2250B1EE]
 10   97,9 [C7E7F1A6] [3ADAFB73]
 11   97,9 [37C2935E] [8B48CBAA]
 12   97,9 [8A8C8458] [4F8AEB2D]

Отчёт auCDtect Task Manager

Код:

-----------------------

DON'T MODIFY THIS FILE

-----------------------

PERFORMER: auCDtect Task Manager, ver. 1.6.0 RC1 build 1.6.0.1
Copyright (c) 2008-2010 y-soft. All rights reserved
http://y-soft.org

ANALYZER: auCDtect: CD records authenticity detector, version 0.8.2
Copyright (c) 2004 Oleg Berngardt. All rights reserved.
Copyright (c) 2004 Alexander Djourik. All rights reserved.

FILE: 12. 乙P — PON!POKO!PON! ~ off vocal ver.flac
  Size: 38339559 Hash: 814BC9B358865BB2B99B8F5D07CA8736 Accuracy: -m0
  Conclusion: CDDA 100%
  Signature: B75BA8844EBF59D4AE900F2C024E0144C0C60F0F
FILE: 11. ワニ — SIN ~ off vocal ver.flac
  Size: 39100038 Hash: AD207BFDB98BDDF73432D3FAC787E5B7 Accuracy: -m0
  Conclusion: CDDA 100%
  Signature: 39CCBCD854188E724E7BADF6B10997BDD4454906
FILE: 10. Sepia — escapism ~ off vocal ver.flac
  Size: 40858026 Hash: 46D0522E8B88592C9DBD71F6C17F1F75 Accuracy: -m0
  Conclusion: CDDA 99%
  Signature: 3038D3C15A0D13893112729C7EED50668B82B576
FILE: 09. めらみぽっぷ — 幻影セレナーデ.flac
  Size: 31250056 Hash: DBB560A9AEA155BB0ED4EC815EA6C446 Accuracy: -m0
  Conclusion: CDDA 100%
  Signature: 3F0BEFAF54880E7D25EF624EDB0A1AFD344BB124
FILE: 08. めらみぽっぷ — desire.flac
  Size: 34841910 Hash: 3FA91C28DF82FC6EC40FE459749DDB8D Accuracy: -m0
  Conclusion: CDDA 100%
  Signature: 19941CEB84BE1169C28846DB3456BBB18A68ADBB
FILE: 07. めらみぽっぷ — cathartic effect.flac
  Size: 34982521 Hash: C7D12BE9F29EAD08AAFC75E8A9A8878C Accuracy: -m0
  Conclusion: CDDA 100%
  Signature: F19F18E8FAA26D6B8C6F88F786497D1E65FCFF9D
FILE: 06. めらみぽっぷ — PON!POKO!PON!.flac
  Size: 38864967 Hash: B9660DDD3756ECF474D7C3171D5EE146 Accuracy: -m0
  Conclusion: CDDA 100%
  Signature: 9835BE84606A2177C032ACBB5A33E7F3504F8B87
FILE: 05. めらみぽっぷ — 隠レン坊.flac
  Size: 34762867 Hash: 35A4FFC2B2C1B06CE942B423DF61ADF6 Accuracy: -m0
  Conclusion: CDDA 100%
  Signature: 27A2B12F925047EEA14B025291E63639355A24D7
FILE: 04. めらみぽっぷ — 転生輪廻.flac
  Size: 36614791 Hash: CA80368159ED18C4A8C22D585EA9938F Accuracy: -m0
  Conclusion: CDDA 100%
  Signature: 73C604A9C67679E06F95F7388D4A950E31F95E19
FILE: 03. めらみぽっぷ — Sの悲劇.flac
  Size: 33777306 Hash: DD0FF5D4ABB79C5CBC37C571C02E1445 Accuracy: -m0
  Conclusion: CDDA 100%
  Signature: C9BF614F27543B675E58E4F83CE32DABD921AF1C
FILE: 02. めらみぽっぷ — SIN.flac
  Size: 39756087 Hash: 6738573E7676C2A58612B1A8ADB6035E Accuracy: -m0
  Conclusion: CDDA 100%
  Signature: 4A69EEA99275F81B61EDC04C99B300947CACE881
FILE: 01. めらみぽっぷ — escapism.flac
  Size: 40265964 Hash: 14A7237A21B8B7E50CDDB9B3CBC57AC2 Accuracy: -m0
  Conclusion: CDDA 100%
  Signature: 9B051AB28AC4CA6E66B982072EBFC69F4CF31C04

2012.08.11 (MCCD-009) M (C82)

Трeклист:

[03:17] 01. 紫 - Mary Sue
[05:10] 02. めらみぽっぷ - オモイデハナビ打ち上げて
[02:45] 03. 紫 - Reigh this Time
[04:13] 04. めらみぽっぷ - ソラハナクトモ
[05:07] 05. 池田 奨 - Transparency
[03:27] 06. 池田 奨 - 咎人晒し
[04:14] 07. めらみぽっぷ - 覚醒
[04:47] 08. 紫 - Separated Souls

Прoдолжительность: 00:00:33:03

Отчёт AccurateRip

Код:

[CUETools log; Date: 28.01.2015 22:29:56; Version: 2.1.5]
Padded some input files to a frame boundary.
[CTDB TOCID: sbEzFPLztHlDi1lqXljCYpRRxf8-] found.
Track | CTDB Status
  1   | (2/2) Accurately ripped
  2   | (2/2) Accurately ripped
  3   | (2/2) Accurately ripped
  4   | (2/2) Accurately ripped
  5   | (2/2) Accurately ripped
  6   | (2/2) Accurately ripped
  7   | (2/2) Accurately ripped
  8   | (2/2) Accurately ripped
[AccurateRip ID: 0009eb20-004298a1-5b07bf08] disk not present in database.

Track Peak [ CRC32  ] [W/O NULL]
 --   98,7 [A7132606] [E81C495C]
 01   98,3 [9A34798E] [36C1D93B]
 02   98,3 [CEF5EF27] [582EE728]
 03   98,3 [9AB820BC] [1DFD20D8]
 04   98,7 [190F3A41] [CBE70A61]
 05   98,7 [CB18BED4] [5BC8F92E]
 06   98,7 [76F18683] [CBC5759D]
 07   98,7 [464A7F87] [D9B6DB8C]
 08   98,7 [98D3C060] [03070D60]

Отчёт auCDtect Task Manager

Код:

-----------------------

DON'T MODIFY THIS FILE

-----------------------

PERFORMER: auCDtect Task Manager, ver. 1.6.0 RC1 build 1.6.0.1
Copyright (c) 2008-2010 y-soft. All rights reserved
http://y-soft.org

ANALYZER: auCDtect: CD records authenticity detector, version 0.8.2
Copyright (c) 2004 Oleg Berngardt. All rights reserved.
Copyright (c) 2004 Alexander Djourik. All rights reserved.

FILE: 08. 紫 — Separated Souls.flac
  Size: 40370243 Hash: 0348ADBBA2873CFC1DD54E50D41FFADD Accuracy: -m0
  Conclusion: CDDA 100%
  Signature: F0BF7D618F4C663C56511B1FC8531A82CFA0E6BB
FILE: 07. めらみぽっぷ — 覚醒.flac
  Size: 29251550 Hash: ADD0FEB131AE07B34128A95FD3A7681D Accuracy: -m0
  Conclusion: CDDA 99%
  Signature: C05FA7D52DA27DD4928A8E929BCA2923DB32C57D
FILE: 06. 池田 奨 — 咎人晒し.flac
  Size: 28302563 Hash: FD5352343566CB599FA0EA01FF13D134 Accuracy: -m0
  Conclusion: CDDA 100%
  Signature: C825A2276947EC86B53A992E3BB47045D33805E1
FILE: 05. 池田 奨 — Transparency.flac
  Size: 44068601 Hash: 836C900F757006B52BA5A218C281ACFB Accuracy: -m0
  Conclusion: CDDA 99%
  Signature: A431C2D652C2A8227F857F90C159C2A3962B74F5
FILE: 04. めらみぽっぷ — ソラハナクトモ.flac
  Size: 37759718 Hash: 03A3DDEEB521748BB230105B844DD77F Accuracy: -m0
  Conclusion: CDDA 100%
  Signature: 3E510A2D33766F127408115AE51766E73232FB12
FILE: 03. 紫 — Reigh this Time.flac
  Size: 22518850 Hash: 728C2824D6D01278B95C4738A974BA4C Accuracy: -m0
  Conclusion: CDDA 99%
  Signature: 15AC035DA45E17436F21991431422C450216AE7C
FILE: 02. めらみぽっぷ — オモイデハナビ打ち上げて.flac
  Size: 43529732 Hash: 6FE5BEB9CB3F242B79021C19721DDAC4 Accuracy: -m0
  Conclusion: CDDA 100%
  Signature: D2E9A46FDF7FDC3AD0806853552D1A3C04C3E5BD
FILE: 01. 紫 — Mary Sue.flac
  Size: 27741924 Hash: 900A568B8813E8652DD442DF73BC825A Accuracy: -m0
  Conclusion: CDDA 100%
  Signature: AF6BC92C1EB87BBC3E348D55BCFFA5F856B525BD

2012.12.30 (MCCD-010) nyanco (C83)

Трeклист:

[04:58] 01. めらみぽっぷ - オレンジデイズ
[03:45] 02. IZNA - 大サーカスの夜
[03:48] 03. めらみぽっぷ - これがにゃんこの生きる道
[05:03] 04. プラスもなか - ドットの恋もよう
[04:18] 05. 池田 奨 - イマージュ
[05:25] 06. IZNA - 人形 -Doll-
[05:46] 07. Hotori* - Unfinished memory
[04:43] 08. めらみぽっぷ - Solar flare
[04:59] 09. mono & RI - オレンジデイズ ~ off vocal ver.
[03:48] 10. Sepia - これがにゃんこの生きる道 ~ off vocal ver.
[05:02] 11. mono & RI - ドットの恋もよう ~ off vocal ver.

Прoдолжительность: 00:00:51:41

Отчёт AccurateRip

Код:

[CUETools log; Date: 28.01.2015 22:30:03; Version: 2.1.5]
Padded some input files to a frame boundary.
[CTDB TOCID: Px_tQ5ugicOtQ1rM7ABPJjs1dC8-] found.
Track | CTDB Status
  1   | (4/4) Accurately ripped
  2   | (4/4) Accurately ripped
  3   | (4/4) Accurately ripped
  4   | (4/4) Accurately ripped
  5   | (4/4) Accurately ripped
  6   | (4/4) Accurately ripped
  7   | (4/4) Accurately ripped
  8   | (4/4) Accurately ripped
  9   | (4/4) Accurately ripped
 10   | (4/4) Accurately ripped
 11   | (4/4) Accurately ripped
[AccurateRip ID: 0014f5e2-00b6f954-8a0c1d0b] disk not present in database.

Track Peak [ CRC32  ] [W/O NULL]
 --   98,8 [D334FDA1] [0013F0CB]
 01   98,8 [CCFE9F86] [4F06830C]
 02   97,7 [62D5ADF8] [39ACA4E9]
 03   98,8 [7D124C9C] [2619FE16]
 04   97,7 [CE393530] [FCCC3992]
 05   98,8 [E6CC9529] [FC8E2225]
 06   97,7 [3D7322CC] [7B1DBAF8]
 07   97,7 [63FC5ECC] [37DFD2D5]
 08   98,8 [781DA29C] [1716D4C4]
 09   98,8 [4D6C7195] [D7F64CAA]
 10   98,8 [1039E385] [3A2F9248]
 11   97,7 [B89981FB] [B5E3C8BD]

Отчёт auCDtect Task Manager

Код:

-----------------------

DON'T MODIFY THIS FILE

-----------------------

PERFORMER: auCDtect Task Manager, ver. 1.6.0 RC1 build 1.6.0.1
Copyright (c) 2008-2010 y-soft. All rights reserved
http://y-soft.org

ANALYZER: auCDtect: CD records authenticity detector, version 0.8.2
Copyright (c) 2004 Oleg Berngardt. All rights reserved.
Copyright (c) 2004 Alexander Djourik. All rights reserved.

FILE: 11. mono & RI — ドットの恋もよう ~ off vocal ver.flac
  Size: 37912214 Hash: 77B7F52B0B027664829D9024167B40F0 Accuracy: -m0
  Conclusion: CDDA 99%
  Signature: 8B9E934D0E2246B64B8FB747A0ADC2032F75FAE8
FILE: 10. Sepia — これがにゃんこの生きる道 ~ off vocal ver.flac
  Size: 29736921 Hash: 4C8D6A9CDCAEE87AB409775D8A27289F Accuracy: -m0
  Conclusion: CDDA 100%
  Signature: A6DC40F996C95A6B966DA962073413DC21B29218
FILE: 09. mono & RI — オレンジデイズ ~ off vocal ver.flac
  Size: 39979260 Hash: 083B494CB3B62134C074C124A41B3890 Accuracy: -m0
  Conclusion: CDDA 100%
  Signature: 06ADEB94B01E5879A05BA79B19AE8611A61E6858
FILE: 08. めらみぽっぷ — Solar flare.flac
  Size: 39553675 Hash: 674F9F42659624ACC4937CFB3B037152 Accuracy: -m0
  Conclusion: CDDA 100%
  Signature: DEC0122B9373670A640D693ACAF0740AFFC573C9
FILE: 07. Hotori_ — Unfinished memory.flac
  Size: 43717045 Hash: 0A4FB18AB34420477921922E08DC7826 Accuracy: -m0
  Conclusion: CDDA 100%
  Signature: 36B31FE380ED729A9CA5286E264798E35266E4B2
FILE: 06. IZNA — 人形 -Doll-.flac
  Size: 46945802 Hash: BCF38A84C9DB2692BA807B651A9C3342 Accuracy: -m0
  Conclusion: CDDA 100%
  Signature: F3C7B21213E84620E5703E9D50D700AA5A6C7BCE
FILE: 05. 池田 奨 — イマージュ.flac
  Size: 36407887 Hash: DC85E1D6859B9B62394A4565B76443FD Accuracy: -m0
  Conclusion: CDDA 100%
  Signature: 7E16751542B85D927AB2A4DF73DBDE45102D0DC0
FILE: 04. プラスもなか — ドットの恋もよう.flac
  Size: 38621043 Hash: 75499110AD0789BDDE5C7BA77A322C25 Accuracy: -m0
  Conclusion: CDDA 100%
  Signature: D708F73C973E15F1541C55B7378A7FA9745E58F4
FILE: 03. めらみぽっぷ — これがにゃんこの生きる道.flac
  Size: 29952144 Hash: 680766172FE17125A14337D9B0007ED1 Accuracy: -m0
  Conclusion: CDDA 100%
  Signature: 8CE6C3ED33FAE35A4EBE43A9C8BDBA52629DC828
FILE: 02. IZNA — 大サーカスの夜.flac
  Size: 31922368 Hash: 918EF002D77F6EB76844141FC8728F30 Accuracy: -m0
  Conclusion: CDDA 100%
  Signature: B1A83BCA9700012D4868E9B1DDC585FA69C29738
FILE: 01. めらみぽっぷ — オレンジデイズ.flac
  Size: 40366776 Hash: ABCD0799D441C61154EF8EE43B6E4316 Accuracy: -m0
  Conclusion: CDDA 100%
  Signature: 675C905075C989FEF6CE7A13B8F588520B0FB858

2013.05.26 (MCCD-011) Object (Reitaisai 10)

Трeклист:

[05:02] 01. めらみぽっぷ - ミステリートレインに乗って
[04:11] 02. めらみぽっぷ - Laninamivir
[03:18] 03. めらみぽっぷ - cosmicromance
[04:43] 04. IZNA - Butterfly…
[04:18] 05. 池田奨 - finale ~月の花~
[04:51] 06. 池田奨 - ツキカゲ
[03:36] 07. Hotori* - OVERCOME
[04:19] 08. プラスもなか - ワープタイムレター
[04:47] 09. 珠梨 - 星形
[03:18] 10. Sepia - 魔術師メリー
[05:02] 11. カミヤシロ - ミステリートレインに乗って ~ off vocal ver.
[04:11] 12. NSY - Laninamivir ~ off vocal ver.
[03:19] 13. シュリンプ - cosmicromance ~ off vocal ver.

Прoдолжительность: 00:00:55:00

Отчёт AccurateRip

Код:

[CUETools log; Date: 28.01.2015 22:30:11; Version: 2.1.5]
Padded some input files to a frame boundary.
[CTDB TOCID: uHwWtREzesgqm0vVuS8cvACn2_Y-] found.
Track | CTDB Status
  1   | (0/2) No match
  2   | (0/2) No match
  3   | (0/2) No match
  4   | (0/2) No match
  5   | (0/2) No match
  6   | (0/2) No match
  7   | (0/2) No match
  8   | (0/2) No match
  9   | (0/2) No match
 10   | (0/2) No match
 11   | (0/2) No match
 12   | (0/2) No match
 13   | (0/2) No match
[AccurateRip ID: 001aed70-010c53fe-a30ce40d] disk not present in database.

Track Peak [ CRC32  ] [W/O NULL]
 --   97,9 [660DC8A8] [05284975]
 01   96,8 [C37F9B6F] [B4287E74]
 02   96,8 [268FD9BA] [AF1959BF]
 03   96,8 [A7C554D8] [BD02BCD9]
 04   96,8 [8143D19F] [2A5C9923]
 05   96,8 [07324BE7] [2E4DD0C7]
 06   96,8 [4C81522C] [86C6B2B0]
 07   97,9 [9DC8A888] [3653567D]
 08   96,8 [6895CEB2] [8B483240]
 09   96,8 [FD292CD7] [EE68BBD3]
 10   96,8 [01A71924] [7F7E673D]
 11   96,8 [E815081D] [DC0F86FE]
 12   96,8 [DD63431A] [2F634551]
 13   96,8 [7105453B] [1222F472]

Отчёт auCDtect Task Manager

Код:

-----------------------

DON'T MODIFY THIS FILE

-----------------------

PERFORMER: auCDtect Task Manager, ver. 1.6.0 RC1 build 1.6.0.1
Copyright (c) 2008-2010 y-soft. All rights reserved
http://y-soft.org

ANALYZER: auCDtect: CD records authenticity detector, version 0.8.2
Copyright (c) 2004 Oleg Berngardt. All rights reserved.
Copyright (c) 2004 Alexander Djourik. All rights reserved.

FILE: 13. シュリンプ — cosmicromance ~ off vocal ver.flac
  Size: 24705163 Hash: 0A9AEF5F344788231428A1C0037BF889 Accuracy: -m0
  Conclusion: CDDA 100%
  Signature: 944267665CC2372D6AE6DA46B617A00B109C8876
FILE: 12. NSY — Laninamivir ~ off vocal ver.flac
  Size: 32763860 Hash: D5A0A6951D8D589EE437948E1D7F7D9E Accuracy: -m0
  Conclusion: CDDA 99%
  Signature: 862010FF254F2A0FCBC9A8D640986A50170B44A5
FILE: 11. カミヤシロ — ミステリートレインに乗って ~ off vocal ver.flac
  Size: 40639559 Hash: BD26B9408CCEEB5C8FF61F78F70E4B8E Accuracy: -m0
  Conclusion: CDDA 100%
  Signature: 66A52C25851662955CBEB39236B9B9C4B73BC9F8
FILE: 10. Sepia — 魔術師メリー.flac
  Size: 25930820 Hash: FA0DA80222C1BC2659A59EB00741846F Accuracy: -m0
  Conclusion: CDDA 99%
  Signature: 3E193F3C743199779367BA403D5CCE68410635EF
FILE: 09. 珠梨 — 星形.flac
  Size: 34568079 Hash: 4DBD8571D51199F8EBC630B5F82D372B Accuracy: -m0
  Conclusion: CDDA 100%
  Signature: EFD0B0C44D08871B3BB1F3B87625C280BEA558C3
FILE: 08. プラスもなか — ワープタイムレター.flac
  Size: 32976260 Hash: 968C2AA9DF515A62D55F679F3EF023E8 Accuracy: -m0
  Conclusion: CDDA 100%
  Signature: DAEBDED80B11CDD4B828407FEB608F0CCB936F8C
FILE: 07. Hotori_ — OVERCOME.flac
  Size: 28538183 Hash: 533DC9587D8334915078519C4B62AF0C Accuracy: -m0
  Conclusion: CDDA 99%
  Signature: 5A93700F3545EFE6F78D2026CC9B4C0069FAE869
FILE: 06. 池田奨 — ツキカゲ.flac
  Size: 42785016 Hash: 066BC5781668F788C77495CCD371109E Accuracy: -m0
  Conclusion: CDDA 100%
  Signature: 86A1B1D5B9A4BB330E2C92EAF20FC2DCD377D72D
FILE: 05. 池田奨 — finale ~月の花~.flac
  Size: 30091524 Hash: 6AF4615700D0A593662B05C261EAEF27 Accuracy: -m0
  Conclusion: CDDA 100%
  Signature: 2CE358A292D2C002583CC8847E20F6F8BB9550F1
FILE: 04. IZNA — Butterfly….flac
  Size: 37941305 Hash: 2195DAE1B1F7349554433455D664A41D Accuracy: -m0
  Conclusion: CDDA 100%
  Signature: 7D90669C6B3A72B2B34E9F373DF830F868567852
FILE: 03. めらみぽっぷ — cosmicromance.flac
  Size: 25112993 Hash: 47D650290CBD03EA518C8CF2913B3552 Accuracy: -m0
  Conclusion: CDDA 100%
  Signature: 6CDF72F37E2B008460BE52F0E61F55734772F775
FILE: 02. めらみぽっぷ — Laninamivir.flac
  Size: 33175852 Hash: 6DE3D1CB5DFD13315394EB592556C7A8 Accuracy: -m0
  Conclusion: CDDA 100%
  Signature: A18EA02AB8D5B9E1F960D9EF6BCEE036B29DC1E5
FILE: 01. めらみぽっぷ — ミステリートレインに乗って.flac
  Size: 41069790 Hash: 2A3572F502ACB208CE9B861305D7752F Accuracy: -m0
  Conclusion: CDDA 100%
  Signature: F2955156AB7EC30D962450CF12C7F872FEE3D0E4

2013.08.12 (MCCD-012) PS (C84)

Трeклист:

[04:47] 01. めらみぽっぷ - oblivion
[03:59] 02. めらみぽっぷ - 696
[03:47] 03. めらみぽっぷ - PETITESIRENE
[05:13] 04. 綾倉盟 - RANKLES
[03:55] 05. Hotori* - 少女Ghost…
[03:49] 06. 池田奨 - アザ
[04:23] 07. プラスもなか - むにゃむにゃダイアリー
[04:04] 08. Sepia - 孤独なウェアウルフ
[05:40] 09. めらみぽっぷ - あの青空を目指して
[04:47] 10. シュリンプ - oblivion ~ off vocal ver.
[03:59] 11. RAT1959 - 696 ~ off vocal ver.
[03:46] 12. 土方英司 - PETITESIRENE ~ off vocal ver.

Прoдолжительность: 00:00:52:14

Отчёт AccurateRip

Код:

[CUETools log; Date: 28.01.2015 22:30:18; Version: 2.1.5]
[CTDB TOCID: k2xi7v451sPIzAZOwYqgGdQJC9E-] found.
Track | CTDB Status
  1   | (0/2) No match
  2   | (0/2) No match
  3   | (0/2) No match
  4   | (0/2) No match
  5   | (0/2) No match
  6   | (0/2) No match
  7   | (0/2) No match
  8   | (0/2) No match
  9   | (0/2) No match
 10   | (0/2) No match
 11   | (0/2) No match
 12   | (0/2) No match
[AccurateRip ID: 0017585f-00da1d71-ae0c3e0c] disk not present in database.

Track Peak [ CRC32  ] [W/O NULL]
 --   98,0 [08A474B1] [856C59FD]
 01   98,0 [80B27617] [F27BE7F9]
 02   97,9 [A7648673] [9F5B0A1D]
 03   98,0 [E85C29E0] [5D56120A]
 04   98,0 [E8D8780C] [84BCA51B]
 05   98,0 [515DEBFC] [61AFD35F]
 06   98,0 [8B1F3A09] [3079A9FE]
 07   98,0 [A98334E3] [D5988E2F]
 08   98,0 [8F685AA9] [0ECFFD21]
 09   98,0 [EDCF9D34] [66D88F8D]
 10   98,0 [40306E43] [7757BE73]
 11   97,9 [9E73322F] [3FBD1A6E]
 12   98,0 [7FEB0121] [E27EE799]

Отчёт auCDtect Task Manager

Код:

-----------------------

DON'T MODIFY THIS FILE

-----------------------

PERFORMER: auCDtect Task Manager, ver. 1.6.0 RC1 build 1.6.0.1
Copyright (c) 2008-2010 y-soft. All rights reserved
http://y-soft.org

ANALYZER: auCDtect: CD records authenticity detector, version 0.8.2
Copyright (c) 2004 Oleg Berngardt. All rights reserved.
Copyright (c) 2004 Alexander Djourik. All rights reserved.

FILE: 01. めらみぽっぷ — oblivion.flac
  Size: 38683550 Hash: 103D6C789C9DCAFF58F1D4179AC6AB97 Accuracy: -m0
  Conclusion: CDDA 100%
  Signature: C1D02E4BFE206A0647E0F9A8A398D19A74978A8A
FILE: 02. めらみぽっぷ — 696.flac
  Size: 28307630 Hash: DE6D842BBD9C39486B94E333083308F4 Accuracy: -m0
  Conclusion: CDDA 100%
  Signature: C7063A55A9405B1717BE345A49755C7CD2B10388
FILE: 03. めらみぽっぷ — PETITESIRENE.flac
  Size: 30803661 Hash: B73A6BDC8BDC687AE348F0C0C9FDF6DB Accuracy: -m0
  Conclusion: CDDA 100%
  Signature: 4E3367D0BA94733E5B31C9D2BD68F34A05382687
FILE: 04. 綾倉盟 — RANKLES.flac
  Size: 42270252 Hash: 3591865D4FAA3BB4EB22303A3B6B028E Accuracy: -m0
  Conclusion: CDDA 86%
  Signature: 2581A53FBE6993A176457AE68B2D131FCAE79010
FILE: 05. Hotori_ — 少女Ghost….flac
  Size: 31603185 Hash: E47D17EA3D42EFF35DD420B8F8914A90 Accuracy: -m0
  Conclusion: CDDA 85%
  Signature: 84D52544F8BAC86F86A04438DCC08B22D78477A6
FILE: 06. 池田奨 — アザ.flac
  Size: 32054207 Hash: FA84E6D9505AFC4358C9FE4303DC2916 Accuracy: -m0
  Conclusion: CDDA 100%
  Signature: 8408A32AB7E1F7BAC0B94661E8D50DEF6EB07B57
FILE: 07. プラスもなか — むにゃむにゃダイアリー.flac
  Size: 33883065 Hash: 0E754A0BB0627B14E40108134F780D70 Accuracy: -m0
  Conclusion: CDDA 100%
  Signature: 35F46AE4DC857F471A3214E93A013B7DC9B0F9BF
FILE: 08. Sepia — 孤独なウェアウルフ.flac
  Size: 33061664 Hash: C3B291C9D5E352AC47FA70537EA4FF34 Accuracy: -m0
  Conclusion: CDDA 100%
  Signature: 5A926174D5E1D99B2073F7728A12B4CC2A62628A
FILE: 09. めらみぽっぷ — あの青空を目指して.flac
  Size: 44243825 Hash: 0A42F6124958732D91F34A81F9BD60F7 Accuracy: -m0
  Conclusion: CDDA 87%
  Signature: 3623AD542E38DD7F1316DD5B8931D4FE5AA3C2A3
FILE: 10. シュリンプ — oblivion ~ off vocal ver.flac
  Size: 38361891 Hash: EFAA34D6204B62187F3E66172AAE7826 Accuracy: -m0
  Conclusion: CDDA 100%
  Signature: 5E7722E412D500E9DD38EAF2390CEF6846B93AB0
FILE: 11. RAT1959 — 696 ~ off vocal ver.flac
  Size: 27915946 Hash: 359E485E1E0EAB5CD14599B7ADDA95DB Accuracy: -m0
  Conclusion: CDDA 100%
  Signature: 1841F134AB5D977D5A2F5D23B86C057B09F867B0
FILE: 12. 土方英司 — PETITESIRENE ~ off vocal ver.flac
  Size: 30468752 Hash: 86B96483989391686EF4EC15A3C63F52 Accuracy: -m0
  Conclusion: CDDA 100%
  Signature: 5A220AC132AAF5C7AE65292EDA45991D97BB5B91

2013.12.30 (MCCD-013) ID (C85)

Трeклист:

[04:41] 01. IZNA - LINK
[04:24] 02. めらみぽっぷ - Invert
[04:05] 03. めらみぽっぷ - DD
[05:12] 04. 綾倉盟 - 長い夢
[05:16] 05. IZNA - sad, in the stormy…
[04:48] 06. めらみぽっぷ - Sign
[04:26] 07. めらみぽっぷ - ヨロコビノウタ
[04:25] 08. buoy - Invert 〜Off vocal ver.
[04:23] 09. シュリンプ - ヨロコビノウタ 〜Off vocal ver.

Прoдолжительность: 00:00:41:46

Отчёт AccurateRip

Код:

[CUETools log; Date: 28.01.2015 22:30:25; Version: 2.1.5]
Padded some input files to a frame boundary.
[CTDB TOCID: P.G2Pm1Rm1Fqs9x1RI9ATaNwJJ8-] found.
Track | CTDB Status
  1   | (0/4) No match
  2   | (0/4) No match
  3   | (0/4) No match
  4   | (0/4) No match
  5   | (0/4) No match
  6   | (0/4) No match
  7   | (0/4) No match
  8   | (0/4) No match
  9   | (0/4) No match
[AccurateRip ID: 000e6631-0069cdd7-7609ca09] found.
Track   [  CRC   |   V2   ] Status
 01     [d187d2f4|4e844376] (0+0/1) No match
 02     [a7a7f119|1774b952] (0+0/1) No match
 03     [3a22ff29|71280fd7] (0+0/1) No match
 04     [884e05d4|464e6168] (0+0/1) No match
 05     [dc788aed|0d481ca9] (0+0/1) No match
 06     [64f5d830|c1293418] (0+0/1) No match
 07     [469ce255|2f25bc57] (0+0/1) No match
 08     [ca653da4|3c4aa90e] (0+0/1) No match
 09     [9e7ef003|c315248d] (0+0/1) No match

Track Peak [ CRC32  ] [W/O NULL]
 --  100,0 [845101AE] [F6118BDF]
 01  100,0 [50E9D055] [EBB6F250]
 02  100,0 [04A768FF] [74A7EC8C]
 03  100,0 [37895064] [BC377F9B]
 04  100,0 [2930C860] [957879EE]
 05  100,0 [84C0986E] [0C4AE78E]
 06  100,0 [11FCDE4E] [A8D7F806]
 07  100,0 [BE67331B] [E065F7BC]
 08  100,0 [FFAF0536] [CE6D89EE]
 09  100,0 [44650226] [73856563]

Отчёт auCDtect Task Manager

Код:

-----------------------

DON'T MODIFY THIS FILE

-----------------------

PERFORMER: auCDtect Task Manager, ver. 1.6.0 RC1 build 1.6.0.1
Copyright (c) 2008-2010 y-soft. All rights reserved
http://y-soft.org

ANALYZER: auCDtect: CD records authenticity detector, version 0.8.2
Copyright (c) 2004 Oleg Berngardt. All rights reserved.
Copyright (c) 2004 Alexander Djourik. All rights reserved.

FILE: 01. IZNA — LINK.flac
  Size: 36767305 Hash: 05941BA6511CFBB19F0B135C6A8D5C6C Accuracy: -m0
  Conclusion: CDDA 94%
  Signature: 056E0A6D354A4C39E63E6FD99B84AA9E3DBF850D
FILE: 02. めらみぽっぷ — Invert.flac
  Size: 35884168 Hash: 729BCCAF769A933991C87D4E4DF36D23 Accuracy: -m0
  Conclusion: CDDA 99%
  Signature: 85B6AD51A96138DC467F875FA67EDE90FB74B52A
FILE: 03. めらみぽっぷ — DD.flac
  Size: 32501469 Hash: B7DC757F060DC2BF40B96006292006C5 Accuracy: -m0
  Conclusion: CDDA 100%
  Signature: B44ACC7F66D675AC7634BBCEFFBA5A40F0F957B1
FILE: 04. 綾倉盟 — 長い夢.flac
  Size: 41936255 Hash: 73BA6A3E755947F934E1326D65D250E2 Accuracy: -m0
  Conclusion: CDDA 100%
  Signature: B5CAFB87D0EA5E18BC769BAEEB93E257E3893F11
FILE: 05. IZNA — sad, in the stormy….flac
  Size: 43917609 Hash: 714F38D75A365067AB58F6CB19FB7C76 Accuracy: -m0
  Conclusion: CDDA 100%
  Signature: 3FA24968FC652D87524FDCB2B721497F17C6E38B
FILE: 06. めらみぽっぷ — Sign.flac
  Size: 37210404 Hash: 09DBF9E51C2E5F2565C681F6EBA937EB Accuracy: -m0
  Conclusion: CDDA 100%
  Signature: 2DA5D5D0CB07E87A7ED8FA7FB27A927D34B03D78
FILE: 07. めらみぽっぷ — ヨロコビノウタ.flac
  Size: 35787642 Hash: 268F9B2C1DFC731E7B58994E5AA0762E Accuracy: -m0
  Conclusion: CDDA 100%
  Signature: C4882A67E5F978048DEE46BEA6FFD436A5520756
FILE: 08. buoy — Invert 〜Off vocal ver.flac
  Size: 35201514 Hash: 9941CE91B88F9A0A969A46026E2AB4C7 Accuracy: -m0
  Conclusion: CDDA 100%
  Signature: 0BEF4E50D890649867837C1BF8FBFE2E3B4D46F2
FILE: 09. シュリンプ — ヨロコビノウタ 〜Off vocal ver.flac
  Size: 35448326 Hash: 6B79CE57E702A2E7C4A232EFADE0FF9B Accuracy: -m0
  Conclusion: CDDA 100%
  Signature: 7C7AFEC7C7F5F6E2C29F1DF7F2311D7390CB248A

2014.08.16 (MCCD-014) VIA (C86)

Трeклист:

[05:06] 01. めらみほっぷ - 夜明けのファンタジー
[04:21] 02. めらみほっぷ - スペル=時空転生回路
[03:10] 03. IZNA - カナシミカナタ
[03:53] 04. IZNA - セイジャノコウシン
[05:00] 05. 綾倉盟 - イカサマ サカサ セカイ
[04:29] 06. めらみほっぷ - evil conduct
[04:57] 07. 珠梨 - 闇夜の月に最後のkiss…
[05:06] 08. シュリンプ - 夜明けのファンタジー~off vocal~
[04:28] 09. Sepia - evil conduct~off vocal~

Прoдолжительность: 00:00:40:34

Отчёт AccurateRip

Код:

[CUETools log; Date: 28.01.2015 22:30:31; Version: 2.1.5]
[CTDB TOCID: QaypdFRpH7c_sf6t9GTkxMaQ6t8-] found.
Track | CTDB Status
  1   | (0/3) No match
  2   | (0/3) No match
  3   | (0/3) No match
  4   | (0/3) No match
  5   | (0/3) No match
  6   | (0/3) No match
  7   | (0/3) No match
  8   | (0/3) No match
  9   | (0/3) No match
[AccurateRip ID: 000da95d-00645f9a-8a098209] found.
Track   [  CRC   |   V2   ] Status
 01     [5678b9df|7f6cdc62] (0+0/3) No match
 02     [4a62910a|9dd1df08] (0+0/3) No match
 03     [90c43c46|fd9f5fc3] (0+0/3) No match
 04     [88790025|4da1b152] (0+0/3) No match
 05     [dd2d40f7|b8978bfe] (0+0/3) No match
 06     [8a139853|6399d3ff] (0+0/3) No match
 07     [05b3e03c|e9dee25e] (0+0/3) No match
 08     [da31cea0|7e6b0963] (0+0/3) No match
 09     [b3984aed|188dadfc] (0+0/2) No match

Track Peak [ CRC32  ] [W/O NULL]
 --  100,0 [FCEE90BC] [17D2321B]
 01  100,0 [101DA6B5] [B3125E47]
 02  100,0 [0969CD83] [9F74CB7F]
 03  100,0 [55CD53C9] [B187E627]
 04  100,0 [6E3779FC] [C63AEDAB]
 05  100,0 [DB8047BC] [1077D2D2]
 06  100,0 [13405229] [CB3DC229]
 07  100,0 [2015249B] [02230EF8]
 08  100,0 [224B1143] [E4C17F83]
 09  100,0 [A878783A] [9F5832DA]

Отчёт auCDtect Task Manager

Код:

-----------------------

DON'T MODIFY THIS FILE

-----------------------

PERFORMER: auCDtect Task Manager, ver. 1.6.0 RC1 build 1.6.0.1
Copyright (c) 2008-2010 y-soft. All rights reserved
http://y-soft.org

ANALYZER: auCDtect: CD records authenticity detector, version 0.8.2
Copyright (c) 2004 Oleg Berngardt. All rights reserved.
Copyright (c) 2004 Alexander Djourik. All rights reserved.

FILE: 01. めらみほっぷ — 夜明けのファンタジー.flac
  Size: 41885911 Hash: 27D96E7C2635B5BA268ECC32E504FAD1 Accuracy: -m0
  Conclusion: CDDA 100%
  Signature: 1A95AD8225F0FACCDC4CBE1E3449E8DF197AC16B
FILE: 02. めらみほっぷ — スペル=時空転生回路.flac
  Size: 36871435 Hash: 28472CAC29C2E016B7224873DCEB4173 Accuracy: -m0
  Conclusion: CDDA 99%
  Signature: 5333794B04EBC22858F019A43E5A08E8205F78F1
FILE: 03. IZNA — カナシミカナタ.flac
  Size: 25231355 Hash: A176F143A3015A272008AA4F3623BC85 Accuracy: -m0
  Conclusion: CDDA 100%
  Signature: DB57E828231B57935032C2E8A8B106BDB14CD238
FILE: 04. IZNA — セイジャノコウシン.flac
  Size: 32060153 Hash: 150FCEEA6D666ECFBF9CF148D8315028 Accuracy: -m0
  Conclusion: CDDA 100%
  Signature: DCC45DAC37BD43A3FF8FD70A10A29F0676A47813
FILE: 05. 綾倉盟 — イカサマ サカサ セカイ.flac
  Size: 43847331 Hash: 6F0F6DB1575A8B68D6EFEF07828911BC Accuracy: -m0
  Conclusion: CDDA 99%
  Signature: 3DF6E858B5BD4BAF30DCBAF144EAEC85FC296142
FILE: 06. めらみほっぷ — evil conduct.flac
  Size: 38386637 Hash: 6DDEFFD7A37A12B02213A8DABF72518B Accuracy: -m0
  Conclusion: CDDA 100%
  Signature: 099267A022C33223FC4FC7311520462780D86884
FILE: 07. 珠梨 — 闇夜の月に最後のkiss….flac
  Size: 39066462 Hash: 9F6E02D635342B6D92AA6F3A7BA8A077 Accuracy: -m0
  Conclusion: CDDA 100%
  Signature: 057E093AA839FDF482EB09CC06CA351A1E6AB22A
FILE: 08. シュリンプ — 夜明けのファンタジー~off vocal~.flac
  Size: 41511026 Hash: B5DE3E9EA6552062EA58AF74AB7883E6 Accuracy: -m0
  Conclusion: CDDA 100%
  Signature: D7464F0AE019EC475BEDAE8D36EBAE966014AB33
FILE: 09. Sepia — evil conduct~off vocal~.flac
  Size: 37916518 Hash: BCE08E40A26DC44FC511BA11216A4FE2 Accuracy: -m0
  Conclusion: CDDA 99%
  Signature: EA0CC2C1570B8A265F9346181F3F804C15152F47

2014.12.29 (MCCD-015) need (C87)

Трeклист:

[04:44] 01. めらみぽっぷ - ニードルワード
[03:53] 02. めらみぽっぷ - メタモルフォーゼ
[04:03] 03. めらみぽっぷ - WhiteRequiem
[04:50] 04. 珠梨 - blue,blue...
[04:54] 05. 綾倉盟 - Flame under the moonlight
[03:30] 06. 九重たま - another
[04:53] 07. めらみぽっぷ - 東のエデン
[04:44] 08. シュリンプ - ニードルワード ~Off vocal ver.
[03:52] 09. RAT1959 - メタモルフォーゼ ~Off vocal ver.
[04:50] 10. Sepia - 東のエデン ~Off vocal ver.

Прoдолжительность: 00:00:44:09

Отчёт AccurateRip

Код:

[CUETools log; Date: 27.01.2015 12:50:23; Version: 2.1.5]
Padded some input files to a frame boundary.
[CTDB TOCID: 4N7AQS_1qEwGwQFrEOrwc20ZrKc-] found.
Track | CTDB Status
  1   | (2/2) Accurately ripped
  2   | (2/2) Accurately ripped
  3   | (2/2) Accurately ripped
  4   | (2/2) Accurately ripped
  5   | (2/2) Accurately ripped
  6   | (2/2) Accurately ripped
  7   | (2/2) Accurately ripped
  8   | (2/2) Accurately ripped
  9   | (2/2) Accurately ripped
 10   | (2/2) Accurately ripped
[AccurateRip ID: 00109169-0084a9af-7e0a580a] disk not present in database.

Track Peak [ CRC32  ] [W/O NULL]
 --  100,0 [B6913468] [B229244C]
 01  100,0 [A6AA2206] [1FA04F63]
 02  100,0 [D032D3E5] [88DFC894]
 03  100,0 [3E8E87EA] [18334B28]
 04  100,0 [0C999E60] [474AB9D2]
 05  100,0 [5A52AD1E] [47923EBF]
 06  100,0 [B860C47F] [5920B800]
 07  100,0 [54D2CE85] [3EBB5CFA]
 08  100,0 [EA78C4DE] [E55C3A6B]
 09  100,0 [7107246B] [66C1B1A8]
 10  100,0 [AF26AD6F] [8755C21E]

Отчёт auCDtect Task Manager

Код:

-----------------------

DON'T MODIFY THIS FILE

-----------------------

PERFORMER: auCDtect Task Manager, ver. 1.6.0 RC1 build 1.6.0.1
Copyright (c) 2008-2010 y-soft. All rights reserved
http://y-soft.org

ANALYZER: auCDtect: CD records authenticity detector, version 0.8.2
Copyright (c) 2004 Oleg Berngardt. All rights reserved.
Copyright (c) 2004 Alexander Djourik. All rights reserved.

FILE: 01. めらみぽっぷ — ニードルワード.flac
  Size: 38756839 Hash: F8595668B9BF3F5E330CA0DDA5C0213C Accuracy: -m0
  Conclusion: CDDA 100%
  Signature: 668FE7C30CEDEBD3D517B1DE1AFD93D798D472A7
FILE: 02. めらみぽっぷ — メタモルフォーゼ.flac
  Size: 32018868 Hash: F2702A095B1C8A559EAC2876C06D11E9 Accuracy: -m0
  Conclusion: CDDA 92%
  Signature: 59AF99B3EDB1028970BEC31DB15833A996FA1507
FILE: 03. めらみぽっぷ — WhiteRequiem.flac
  Size: 33489444 Hash: 3B796FA8DA9E170E1AB45A7FA4011D78 Accuracy: -m0
  Conclusion: CDDA 100%
  Signature: 00061179F3E88175302D778FA3F55996D4F4E75B
FILE: 04. 珠梨 — blue,blue.flac
  Size: 33363460 Hash: EA62B74A1D9AEDF18818B017AC5F0A17 Accuracy: -m0
  Conclusion: CDDA 100%
  Signature: 51784270ADD95D98550A00313EB162FA4597E855
FILE: 05. 綾倉盟 — Flame under the moonlight.flac
  Size: 39775123 Hash: E4BE1FE68C10BBE52323E4C1EFC67D61 Accuracy: -m0
  Conclusion: CDDA 100%
  Signature: 4CD9E4C0F23A3C2615E9B9DA694CE9EB4A5A6B51
FILE: 06. 九重たま — another.flac
  Size: 28075189 Hash: 96614B34FFD97CB443A9DD0F535503F0 Accuracy: -m0
  Conclusion: CDDA 85%
  Signature: E1413E35D070CCA2A1F3FF67224A3B14411B79FA
FILE: 07. めらみぽっぷ — 東のエデン.flac
  Size: 42548281 Hash: 5AADCB2EB76A2E7B76102E17E819F496 Accuracy: -m0
  Conclusion: CDDA 100%
  Signature: E012F34BB3DA436A735DA04014EF1F2A66247D42
FILE: 08. シュリンプ — ニードルワード ~Off vocal ver.flac
  Size: 38176717 Hash: EC4D09ABEE7866FB66F62D6EB99C8833 Accuracy: -m0
  Conclusion: CDDA 100%
  Signature: D0AC88A066290DC8865D7AD752CBE923EAE2F94C
FILE: 09. RAT1959 — メタモルフォーゼ ~Off vocal ver.flac
  Size: 31406379 Hash: 4245127629709996796D62E83503B547 Accuracy: -m0
  Conclusion: CDDA 62%
  Signature: 2F9F29CB1FA832D33FEF9FDEBE841845FD0DEA61
FILE: 10. Sepia — 東のエデン ~Off vocal ver.flac
  Size: 42375794 Hash: FBC3957DB6A3453FE4F279688055815C Accuracy: -m0
  Conclusion: CDDA 99%
  Signature: DD89E0616272A43EBF7B8143BBD708474B7B1DEB

История обновлений

2013.03.07

Добавлены альбомы:

  • 2013.08.12 [MCCD-012] PS [C84]
  • 2013.12.30 [MCCD-013] ID [C85]

2014.08.31

Добавлен альбом:

  • 2014.08.16 [MCCD-014] VIA [C86]

2015.01.29

Добавлен альбом:

  • 2014.12.29 (MCCD-015) need (C87)

monochrome-coat - 15 альбомов (2009-2014) Touhou Vocal /Doujin/ [FLAC|Lossless] <J-Pop, J-Rock>
Продолжительность: 00:11:27:53
Описание:
Альбомы в раздаче
2009.12.30 (MCCD-001) Euphorbia (C77)
2010.03.14 (MCCD-002) Dearest...from (Reitaisai 7)
2010.08.14 (MCCD-003) UN IVY (C78)
2010.12.30 (MCCD-004) Cutie POP's Tone (C79)

2013.08.12 (MCCD-012) PS (C84)
2013.12.30 (MCCD-013) ID (C85)
2014.08.16 (MCCD-014) VIA (C86)
2014.12.29 (MCCD-015) need (C87)
Детали торрента:
Название:monochrome-coat - 15 альбомов (2009-2014) Touhou Vocal /Doujin/ [FLAC|Lossless] <J-Pop, J-Rock>
Дата добавления:29 Янв 2015 00:38:56
Размер:5,48 GB
Раздают:5
Качают:0
Форум:Doujin Music (Lossless)

All rights reserved © 2015-2019