TORRENTS45.XYZ

Скачать VA - Saturation Bombing 2 (2004) [FLAC|Lossless]<Industrial, Experimental, Noise>


VA - Saturation Bombing 2 (2004)
Год: 2004
Издатель (лейбл): TIK Recordings
Номер по каталогу: tik004
Жанр: Industrial, Experimental, Noise
Продолжительность: 01:14:35

Кодек: FLAC
Битрейт: Lossless
Тип рипа: tracks+.cue

Трек лист:
01. This Morn' Omina - Ureaus (lcf) (Live @ CC Luchtbal) (8:59)
02. Re_Agent - Weak And Wounded (4:44)
03. Pneumatic Detach - The Zodiac (October Mix) (3:45)
04. Mono No Aware - USO (6:32)
05. Larvae - Fashion Victim (Remix By Censor) (6:01)
06. Prospero - Extinct (5:55)
07. Horchata - Somatic (Remix) (4:41)
08. C2 - Crowd Control (Saturation Mix) (4:27)
09. Iszoloscope - Once The Inferno (Resaturation) (5:02)
10. Ah Cama-Sotz - The Corridors Of The Unseen (Live At Maschinenfest 2001) (8:04)
11. Empusae - Ankou (Live At Maschinenfest 2003) (4:46)
12. Liar's Rosebush Scrap.edx - Collect (Scraps) (5:51)
13. Aidan Baker - Outward Growth (5:48)

Отчёт ЕАС:

Код:

Exact Audio Copy V0.99 prebeta 5 from 4. May 2009

EAC extraction logfile from 9. February 2010, 20:02

Unknown Artist / Unknown Title

Used drive  : BENQ    DVD DD DW1620   Adapter: 1  ID: 0

Read mode               : Secure
Utilize accurate stream : Yes
Defeat audio cache      : Yes
Make use of C2 pointers : No

Read offset correction                      : 618
Overread into Lead-In and Lead-Out          : No
Fill up missing offset samples with silence : Yes
Delete leading and trailing silent blocks   : No
Null samples used in CRC calculations       : Yes
Used interface                              : Native Win32 interface for Win NT & 2000
Gap handling                                : Appended to previous track

Used output format              : User Defined Encoder
Selected bitrate                : 320 kBit/s
Quality                         : High
Add ID3 tag                     : No
Command line compressor         : C:\Program Files\Exact Audio Copy\Flac\flac.exe
Additional command line options : -V -8 -T "artist=%a" -T "title=%t" -T "album=%g" -T "date=%y" -T "tracknumber=%n" -T "genre=%m" %s

TOC of the extracted CD

     Track |   Start  |  Length  | Start sector | End sector
    ---------------------------------------------------------
        1  |  0:00.00 |  8:59.13 |         0    |    40437
        2  |  8:59.13 |  4:44.31 |     40438    |    61768
        3  | 13:43.44 |  3:44.59 |     61769    |    78627
        4  | 17:28.28 |  6:31.62 |     78628    |   108014
        5  | 24:00.15 |  6:01.01 |    108015    |   135090
        6  | 30:01.16 |  5:55.01 |    135091    |   161716
        7  | 35:56.17 |  4:40.58 |    161717    |   182774
        8  | 40:37.00 |  4:27.05 |    182775    |   202804
        9  | 45:04.05 |  5:02.34 |    202805    |   225488
       10  | 50:06.39 |  8:03.46 |    225489    |   261759
       11  | 58:10.10 |  4:46.30 |    261760    |   283239
       12  | 62:56.40 |  5:51.01 |    283240    |   309565
       13  | 68:47.41 |  5:48.08 |    309566    |   335673

Track  1

     Filename D:\Temp\Track01.wav

     Pre-gap length  0:00:02.00

     Peak level 96.4 %
     Track quality 100.0 %
     Test CRC D2C6FBCE
     Copy CRC D2C6FBCE
     Accurately ripped (confidence 1)  [113A2398]
     Copy OK

Track  2

     Filename D:\Temp\Track02.wav

     Pre-gap length  0:00:02.00

     Peak level 100.0 %
     Track quality 100.0 %
     Test CRC 54D48586
     Copy CRC 54D48586
     Accurately ripped (confidence 1)  [270BD2B9]
     Copy OK

Track  3

     Filename D:\Temp\Track03.wav

     Pre-gap length  0:00:02.00

     Peak level 92.3 %
     Track quality 99.9 %
     Test CRC C20F3301
     Copy CRC C20F3301
     Accurately ripped (confidence 1)  [0E47D176]
     Copy OK

Track  4

     Filename D:\Temp\Track04.wav

     Pre-gap length  0:00:02.00

     Peak level 89.2 %
     Track quality 99.9 %
     Test CRC 90EFC3E4
     Copy CRC 90EFC3E4
     Accurately ripped (confidence 1)  [33F1EE0E]
     Copy OK

Track  5

     Filename D:\Temp\Track05.wav

     Pre-gap length  0:00:02.00

     Peak level 83.0 %
     Track quality 100.0 %
     Test CRC 29D2E4A5
     Copy CRC 29D2E4A5
     Accurately ripped (confidence 1)  [4FDF88C2]
     Copy OK

Track  6

     Filename D:\Temp\Track06.wav

     Pre-gap length  0:00:02.00

     Peak level 96.4 %
     Track quality 100.0 %
     Test CRC A8D839F8
     Copy CRC A8D839F8
     Accurately ripped (confidence 1)  [DA0A9308]
     Copy OK

Track  7

     Filename D:\Temp\Track07.wav

     Pre-gap length  0:00:02.00

     Peak level 100.0 %
     Track quality 100.0 %
     Test CRC DC43E13F
     Copy CRC DC43E13F
     Accurately ripped (confidence 1)  [8DAFCFB3]
     Copy OK

Track  8

     Filename D:\Temp\Track08.wav

     Pre-gap length  0:00:02.00

     Peak level 96.5 %
     Track quality 100.0 %
     Test CRC AC1A438D
     Copy CRC AC1A438D
     Accurately ripped (confidence 1)  [40C26041]
     Copy OK

Track  9

     Filename D:\Temp\Track09.wav

     Pre-gap length  0:00:02.00

     Peak level 99.1 %
     Track quality 100.0 %
     Test CRC 4EBC67BB
     Copy CRC 4EBC67BB
     Accurately ripped (confidence 1)  [823F6CD8]
     Copy OK

Track 10

     Filename D:\Temp\Track10.wav

     Pre-gap length  0:00:02.00

     Peak level 92.0 %
     Track quality 100.0 %
     Test CRC 5BD791BB
     Copy CRC 5BD791BB
     Accurately ripped (confidence 1)  [DFF907D6]
     Copy OK

Track 11

     Filename D:\Temp\Track11.wav

     Pre-gap length  0:00:02.00

     Peak level 96.4 %
     Track quality 100.0 %
     Test CRC BC9C67BC
     Copy CRC BC9C67BC
     Accurately ripped (confidence 1)  [1440BF2E]
     Copy OK

Track 12

     Filename D:\Temp\Track12.wav

     Pre-gap length  0:00:02.00

     Peak level 80.3 %
     Track quality 100.0 %
     Test CRC B74BD59C
     Copy CRC B74BD59C
     Accurately ripped (confidence 1)  [A9A43606]
     Copy OK

Track 13

     Filename D:\Temp\Track13.wav

     Pre-gap length  0:00:02.00

     Peak level 95.5 %
     Track quality 100.0 %
     Test CRC 57E09299
     Copy CRC 57E09299
     Accurately ripped (confidence 1)  [E4FBBE94]
     Copy OK

All tracks accurately ripped

No errors occurred

End of status report

Отчёт auCDtect Task manager:

Код:

-----------------------

DON'T MODIFY THIS FILE

-----------------------

PERFORMER: auCDtect Task Manager, ver. 1.5.1RC6 build 1.5.1.7
Copyright (c) 2008-2010 y-soft. All rights reserved
http://y-soft.org

ANALYZER: auCDtect: CD records authenticity detector, version 0.8.2
Copyright (c) 2004 Oleg Berngardt. All rights reserved.
Copyright (c) 2004 Alexander Djourik. All rights reserved.

FILE: 02-Re_Agent_-_Weak_And_Wounded.flac
  Size: 30643806 Hash: CD3C63411AE8E7B955F8D56FDF5F09CB Accuracy: -m0
  Conclusion: CDDA 99%
  Signature: 7AE3F52689E4D4019AC6FE652BA9C1A02F9528BB
FILE: 01-This_Morn'_Omina_-_Ureaus_(lcf)_(Live_@_CC_Luchtbal).flac
  Size: 55662197 Hash: DF6DE893348DAAED45BE9CAC34ADDD27 Accuracy: -m0
  Conclusion: CDDA 58%
  Signature: 81749BA9A5490EED774D7B885F499D5D7839875F
FILE: 13-Aidan_Baker_-_Outward_Growth.flac
  Size: 23322914 Hash: 66AAFBD36C8BAE82C5A5434026DB570D Accuracy: -m0
  Conclusion: CDDA 100%
  Signature: EB705289E5AD8182872E5F74E6E66D3A9A57B717
FILE: 12-Liar's_Rosebush_&_Scrap.edx_-_Collect_(Scraps).flac
  Size: 32857147 Hash: 33CFAE0E128F171DD141EC2EE5F14EF0 Accuracy: -m0
  Conclusion: CDDA 100%
  Signature: CEF215422EB234612589F673AD0154FFEC80E3A4
FILE: 11-Empusae_-_Ankou_(Live_At_Maschinenfest_2003).flac
  Size: 30490137 Hash: 0617D42A6EF846A248A141EEEFFF7B3E Accuracy: -m0
  Conclusion: CDDA 92%
  Signature: 6AB2C49D99E448ED6125855A6E819CC1F7D0C8F4
FILE: 10-Ah_Cama-Sotz_-_The_Corridors_Of_The_Unseen_(Live_At_Maschinenfest_2001).flac
  Size: 59871350 Hash: A78546769C028238755947A4EDB92AA8 Accuracy: -m0
  Conclusion: CDDA 43%
  Signature: 0D4B5479CF0A6F40F7956F3A49EC5C42A81BF72B
FILE: 09-Iszoloscope_-_Once_The_Inferno_(Resaturation).flac
  Size: 41043471 Hash: 4FB8C995877572CA46F021A4BCD641EF Accuracy: -m0
  Conclusion: CDDA 99%
  Signature: D98107B2385204405B8454857611E03CA1663D36
FILE: 08-C2_-_Crowd_Control_(Saturation_Mix).flac
  Size: 32721254 Hash: A8A8BB7517DE94671539DC55C725B91A Accuracy: -m0
  Conclusion: CDDA 100%
  Signature: DEB6900787EF5FB116A6F9F5D83CE0528C8DC042
FILE: 07-Horchata_-_Somatic_(Remix).flac
  Size: 33650487 Hash: 7DA9F0E3349E09FC009C2F3EDC0ECC93 Accuracy: -m0
  Conclusion: CDDA 99%
  Signature: C1CC566031599937D4FA81CD69AA361678ADEC4B
FILE: 06-Prospero_-_Extinct.flac
  Size: 37108646 Hash: C1643DFB8040D310960A984D3FA16458 Accuracy: -m0
  Conclusion: CDDA 100%
  Signature: 33F4488F0525A7A0DE2B03BB454F93F0FA1BB70D
FILE: 05-Larvae_-_Fashion_Victim_(Remix_By_Censor).flac
  Size: 36553546 Hash: D399649724A908E9A79AD337150240DA Accuracy: -m0
  Conclusion: CDDA 99%
  Signature: 5530C0B7494EBBF1D4D43603D9AFC9339D4A9592
FILE: 04-Mono_No_Aware_-_USO.flac
  Size: 53603081 Hash: 8E13FBAE03103C07A21B4F94F3ECE867 Accuracy: -m0
  Conclusion: CDDA 100%
  Signature: AFD46CF284D20FBCB3EB86CFB527B153938DBE45
FILE: 03-Pneumatic_Detach_-_The_Zodiac_(October_Mix).flac
  Size: 29653407 Hash: CEECC252665B49D3F6A21DD5BFAFBB89 Accuracy: -m0
  Conclusion: CDDA 100%
  Signature: 1E9F59E3FF03762CF34DB02915E5A867C1471F25

Discogs

Детали торрента:
Название:VA - Saturation Bombing 2 (2004) [FLAC|Lossless]<Industrial, Experimental, Noise>
Дата добавления:31 Май 2013 16:16:35
Размер:474 MB
Раздают:2
Качают:0
Форум:Experimental, Industrial, EBM, Dark Electro (Lossless)

All rights reserved © 2015-2019