TORRENTS45.XYZ

Скачать Выход через сувенирную лавку / Exit Through the Gift Shop (2010) DVD9


Выход через сувенирную лавку / Exit Through the Gift Shop (2010) DVD9
Русское название: Выход через сувенирную лавку
Оригинальное название: Exit Through the Gift Shop

Страна: США, Великобритания
Режиссер: Бэнкси / Banksy
Год выпуска: 2010
Жанр: Документальный, комедия, граффити
Продолжительность: 01:26:06
Перевод: Многоголосый закадровый, профессиональный

Описание:
Выход через сувенирную лавку – хороший способ для музея немного подзаработать. Вдохновленный произведениями искусства, которыми любовался в залах галереи, посетитель обнаруживает их штампованные репродукции на футболках, кружках, магнитах на холодильник и с удовольствием запасается такими «высококультурными» сувенирами. А что, если бы через сувенирную лавку осуществлялся бы не выход, а вход? Многие ли посетители вообще добрались бы до выставочных залов? Может быть, им вполне хватило бы сувениров? Вообще, где кончается искусство и начинается китч? И как отличить настоящий шедевр от подделки? Ведь, говорят, сам Пикассо в свое время не смог узнать свою картину среди множества копий…

Герой фильма по имени Тьерри – француз, живущий в Лос-Анджелесе – на этом и зарабатывает деньги. Покупая оптом недорогую спортивную одежду, он продает ее втридорога как эксклюзивные изделия авангардных модельеров. Но однажды он попадает в мир по-настоящему авангардного искусства: его знакомят с людьми, рисующими уличные граффити. И этот мир очаровывает Тьерри, а встреча с легендарным Бэнкси переворачивает его жизнь.

Бэнкси – один из самых известных граффитистов – никто не видел его в лицо. Его собственный фильм – не исключение: свою внешность и голос Бэнкси здесь искажает до неузнаваемости. Такая анонимность для тех, кто рисует граффити, – залог выживания: ведь за рисунки на общественных зданиях могут и арестовать. Это уникальное современное явление, балансирующее на грани легальности, некоторыми признаваемое как искусство, другими отвергаемое как вандализм, – прекрасный повод не только вдоволь посмеяться (а на розыгрыши Бэнкси большой мастер), но и поговорить о поддельном и подлинном, о культуре и ширпотребе, о кризисе классических жанров и о том, где же выход. Через сувенирную лавку или этажом выше.

Дополнительные материалы: удаленные сцены, адвокатский монтаж, MBW В Каннах, фильм о Бэнкси.



Качество видео: DVD9
Видеокодек: MPEG-2
Битрейт видео: 7763 Кбит/сек
Видео: PAL 16:9 (720x576) VBR, Auto Letterboxed

Аудио 1: Русское (Dolby AC3, 6 ch, 384Kbps) | Многоголосый закадровый (R5)
Аудио 2: Английское (Dolby AC3, 6 ch, 448Kbps)

Меню

Скриншоты:

DVDInfo

Title:
Size: 7.04 Gb ( 7 380 954 KBytes ) - DVD-9
Enabled regions: 1, 2, 3, 4, 5, 6, 7, 8

VTS_01 :
Play Length: 00:00:03
Video: PAL 16:9 (720x576) VBR, Auto Letterboxed

VTS_02 :
Play Length:
Video: PAL 16:9 (720x576) VBR, Auto Letterboxed

VTS_03 :
Play Length: 00:00:07
Video: PAL 16:9 (720x576) VBR, Auto Letterboxed
Audio:
English (Dolby AC3, 6 ch)

VTS_04 :
Play Length: 01:26:06
Video: PAL 16:9 (720x576) VBR, Auto Letterboxed
Audio:
Russian (Dolby AC3, 6 ch)
English (Dolby AC3, 6 ch)

VTS_05 :
Play Length: 00:00:46
Video: PAL 16:9 (720x576) VBR, Auto Letterboxed
Audio:
English (Dolby AC3, 2 ch)

VTS_06 :
Play Length: 00:00:57
Video: PAL 16:9 (720x576) VBR, Auto Letterboxed
Audio:
English (Dolby AC3, 2 ch)

VTS_07 :
Play Length: 00:01:28
Video: PAL 16:9 (720x576) VBR, Auto Letterboxed
Audio:
English (Dolby AC3, 2 ch)

VTS_08 :
Play Length: 00:01:38
Video: PAL 16:9 (720x576) VBR, Auto Letterboxed
Audio:
English (Dolby AC3, 2 ch)

VTS_09 :
Play Length: 00:00:21
Video: PAL 16:9 (720x576) VBR, Auto Letterboxed
Audio:
English (Dolby AC3, 2 ch)

VTS_10 :
Play Length: 00:07:09
Video: PAL 16:9 (720x576) VBR, Auto Letterboxed
Audio:
English (Dolby AC3, 2 ch)

VTS_11 :
Play Length: 00:15:04
Video: PAL 16:9 (720x576) VBR, Auto Letterboxed
Audio:
English (Dolby AC3, 2 ch)

VTS_12 :
Play Length: 00:13:41
Video: PAL 16:9 (720x576) VBR, Auto Letterboxed
Audio:
English (Dolby AC3, 2 ch)

MediaInfo

Формат : MPEG-PS
Размер файла : 1024 Мбайт
Продолжительность : 16 м.
Режим общего битрейта : Переменный
Общий поток : 8769 Кбит/сек

Видео
Идентификатор : 224 (0xE0)
Формат : MPEG Video
Версия формата : Version 2
Профиль формата : Main@Main
Параметр BVOP формата : Да
Параметр матрицы формата : Выборочная
Продолжительность : 16 м.
Вид битрейта : Переменный
Битрейт : 7763 Кбит/сек
Максимальный битрейт : 9800 Кбит/сек
Ширина : 720 пикселей
Высота : 576 пикселей
Соотношение сторон : 16:9
Частота кадров : 25,000 кадров/сек
Стандарт вещания : PAL
Цветовое пространство : YUV
Субдискретизация насыщенности : 4:2:0
Битовая глубина : 8 бит
Тип развёртки : Чересстрочная
Порядок развёртки : Верхнее поле первое
Метод сжатия : С потерями
Бит/(Пиксели*Кадры) : 0.749
Размер потока : 906 Мбайт (89%)

Аудио #1
Идентификатор : 189 (0xBD)-128 (0x80)
Формат : AC-3
Формат/Информация : Audio Coding 3
Расширение режима : CM (complete main)
Режим смешивания : DVD-Video
Продолжительность : 16 м.
Вид битрейта : Постоянный
Битрейт : 384 Кбит/сек
Каналы : 6 каналов
Расположение каналов : Front: L C R, Side: L R, LFE
Частота : 48,0 КГц
Битовая глубина : 16 бит
Метод сжатия : С потерями
Размер потока : 44,8 Мбайт (4%)

Аудио #2
Идентификатор : 189 (0xBD)-129 (0x81)
Формат : AC-3
Формат/Информация : Audio Coding 3
Расширение режима : CM (complete main)
Режим смешивания : DVD-Video
Продолжительность : 16 м.
Вид битрейта : Постоянный
Битрейт : 448 Кбит/сек
Каналы : 6 каналов
Расположение каналов : Front: L C R, Side: L R, LFE
Частота : 48,0 КГц
Битовая глубина : 16 бит
Метод сжатия : С потерями
Размер потока : 52,3 Мбайт (5%)

Меню

Смотреть Online

Детали торрента:
Название:Выход через сувенирную лавку / Exit Through the Gift Shop (2010) DVD9
Дата добавления:04 Фев 2013 21:11:13
Размер:7,31 GB
Раздают:3
Качают:0
Форум:Интересно обо всем

All rights reserved © 2015-2019