TORRENTS45.XYZ

Скачать Прыжок из космоса / Space Dive - The Red Bull Stratos Story (2012) [720p] BDRip


Прыжок из космоса / Space Dive - The Red Bull Stratos Story (2012) [720p] BDRip
Русское название: Прыжок из космоса
Оригинальное название: Space Dive
Режиссер / Телекомпания: Колин Барр / Совместное производство Великобритания, BBC и США
Год выпуска: 2012
Жанр: Документальный

Описание:
Описание: Воскресенье, 14 октября 2012 года... В этот день австрийский парашютист-экстремал Феликс Баумгартнер поднимается на высоту почти 39 километров чтобы совершить нечто невероятное - прыгнуть с парашютом. И он сделал это! Баумгартнер побил одновременно 3 мировых рекорда: самый высокий полёт на стратостате, самый высотный прыжок с парашютом и самое быстрое свободное падение. Он стал первым в истории парашютистом, который преодолел звуковой барьер. Как шла подготовка к этому прыжку? Как проходил свободный полет космического дайвера? Каким последствиям подвергся бы его организм в случае разгерметизации скафандра? И что в итоге произошло с капсулой и баллоном после завершения миссии? Ответы на эти и другие вопросы вы найдете в этом фильме.



Продолжительность: 01:27:47

Перевод: Двухголосый закадровый, Телекомпания Видеофильм ТВ
Язык субтитров: Немецкий, Английский
Вид субтитров: German - hardsub (только на некоторые диалоги и реплики), English (Отключаемые)

Видеокодек: MPEG-4 AVC/H.264
Битрейт видео: ~5225 Кбит/сек
Размер кадра: 1280 x 720
Качество видео: BDRip [720p]
Аудио 1: Russian: 48 kHz, AC3, 2/0 (L,R), ~192 kbps avg
Аудио 2: English: 48 kHz, AC3, 2/0 (L,R), ~192 kbps avg

За синхронизацию русской и английской звуковых дорожек, а также за подгонку английских субтитров большое спасибо nyctalus.

MediaInfo

Общее
Уникальный идентификатор : 206996455091879188674067841232202351762 (0x9BBA112F0FA5E96AA5CFEE3DFC53C492)
Полное имя : D:\HD\2013\Документалка\Прыжок из космоса (2012)\Space.Dive.2012.BDRip.720p.Rus.Eng.mkv
Формат : Matroska
Версия формата : Version 2
Размер файла : 3,45 Гбайт
Продолжительность : 1 ч. 27 м.
Общий поток : 5627 Кбит/сек
Дата кодирования : UTC 2013-01-27 06:07:29
Программа кодирования : mkvmerge v3.4.0 ('Rapunzel') сборка от May 15 2010 09:38:20
Библиотека кодирования : libebml v0.8.0 + libmatroska v0.9.0

Видео
Идентификатор : 1
Формат : AVC
Формат/Информация : Advanced Video Codec
Профиль формата : High@L4.1
Параметр CABAC формата : Да
Параметр ReFrames формата : 10 кадров
Идентификатор кодека : V_MPEG4/ISO/AVC
Продолжительность : 1 ч. 27 м.
Битрейт : 5225 Кбит/сек
Ширина : 1280 пикселей
Высота : 720 пикселей
Соотношение сторон : 16:9
Режим частоты кадров : Постоянный
Частота кадров : 25,000 кадров/сек
Цветовое пространство : YUV
Субдискретизация насыщенности : 4:2:0
Битовая глубина : 8 бит
Тип развёртки : Прогрессивная
Бит/(Пиксели*Кадры) : 0.227
Размер потока : 3,15 Гбайт (91%)
Библиотека кодирования : x264 core 129 r2245 bc13772
Настройки программы : cabac=1 / ref=10 / deblock=1:-2:-1 / analyse=0x3:0x113 / me=umh / subme=11 / psy=1 / psy_rd=1.00:0.20 / mixed_ref=1 / me_range=32 / chroma_me=1 / trellis=2 / 8x8dct=1 / cqm=0 / deadzone=21,11 / fast_pskip=0 / chroma_qp_offset=-3 / threads=3 / lookahead_threads=1 / sliced_threads=0 / nr=0 / decimate=0 / interlaced=0 / bluray_compat=0 / constrained_intra=0 / bframes=9 / b_pyramid=2 / b_adapt=2 / b_bias=0 / direct=3 / weightb=1 / open_gop=0 / weightp=2 / keyint=250 / keyint_min=25 / scenecut=40 / intra_refresh=0 / rc_lookahead=40 / rc=2pass / mbtree=0 / bitrate=5225 / ratetol=1.0 / qcomp=0.60 / qpmin=0 / qpmax=69 / qpstep=4 / cplxblur=20.0 / qblur=0.5 / vbv_maxrate=50000 / vbv_bufsize=50000 / nal_hrd=none / ip_ratio=1.40 / pb_ratio=1.30 / aq=1:1.00
Язык : English
Default : Нет
Forced : Нет

Аудио #1
Идентификатор : 2
Формат : AC-3
Формат/Информация : Audio Coding 3
Расширение режима : CM (complete main)
Параметр Endianness формата : Big
Идентификатор кодека : A_AC3
Продолжительность : 1 ч. 27 м.
Вид битрейта : Постоянный
Битрейт : 192 Кбит/сек
Каналы : 2 канала
Расположение каналов : Front: L R
Частота : 48,0 КГц
Битовая глубина : 16 бит
Метод сжатия : С потерями
Размер потока : 121 Мбайт (3%)
Заголовок : RU
Язык : Russian
Default : Да
Forced : Да

Аудио #2
Идентификатор : 3
Формат : AC-3
Формат/Информация : Audio Coding 3
Расширение режима : CM (complete main)
Параметр Endianness формата : Big
Идентификатор кодека : A_AC3
Продолжительность : 1 ч. 27 м.
Вид битрейта : Постоянный
Битрейт : 192 Кбит/сек
Каналы : 2 канала
Расположение каналов : Front: L R
Частота : 48,0 КГц
Битовая глубина : 16 бит
Метод сжатия : С потерями
Размер потока : 121 Мбайт (3%)
Заголовок : ENG
Язык : English
Default : Нет
Forced : Нет

Текст
Идентификатор : 4
Формат : UTF-8
Идентификатор кодека : S_TEXT/UTF8
Идентификатор кодека/Информация : UTF-8 Plain Text
Заголовок : ENG_SUB
Язык : English
Default : Нет
Forced : Нет

Меню
00:00:00.000 : :
00:05:08.760 : :
00:08:10.440 : :
00:11:53.040 : :
00:14:31.880 : :
00:24:18.760 : :
00:25:55.360 : :
00:32:28.840 : :
00:35:58.320 : :
00:43:47.640 : :
00:44:30.240 : :
00:47:21.240 : :
00:50:59.400 : :
00:56:36.600 : :
00:58:44.720 : :
01:01:55.160 : :
01:05:13.640 : :
01:27:21.400 : :
Скриншоты:








Смотреть Online

Детали торрента:
Название:Прыжок из космоса / Space Dive - The Red Bull Stratos Story (2012) [720p] BDRip
Дата добавления:27 Янв 2013 10:23:05
Размер:3,45 GB
Раздают:1
Качают:0
Форум:Интересно обо всем

All rights reserved © 2015-2019