TORRENTS45.XYZ

Скачать GoPro HD: Dreams with Kelia Moniz - Roxy Wahine Classic 2011 (Music from SKY) [1080p] WEBRip


GoPro HD: Dreams with Kelia Moniz - Roxy Wahine Classic 2011 (Music from SKY)
Hазвание: Dreams with Kelia Moniz - Roxy Wahine Classic 2011 (Music from SKY)
Канал: GoPro HD
Год выпуска: 2011
Жанр: музыка, документальный

Описание:
Рокси серфер Kelia Moniz на длинной доске, сессия на красивых пляжах Вайкики.

Качество видео: WEBRip 1080p
Продолжительность: 00:05:02
Перевод: oтсутствует

Видео: MPEG4 AVC/H.264, 1920x1080 (16:9), 15600kbps
Аудио: AC3 2ch, 48kHz, 640kbps, (SKY - Джульетта / Zion I - Coastin)

MediaInfo

Общее
Уникальный идентификатор : 171411781195225704472229781245961238515 (0x80F4B54E11405937855D1BD6B6F0F7F3)
Полное имя : GoPro HD Dreams with Kelia Moniz - Roxy Wahine Classic 2011 (Music from SKY).mkv
Формат : Matroska
Версия формата : Version 2
Размер файла : 601 Мбайт
Продолжительность : 00:05:02
Общий поток : 16,6 Мбит/сек
Дата кодирования : UTC 2012-11-02 16:38:21
Программа кодирования : mkvmerge v5.5.0 ('Healer') built on Apr 6 2012 21:43:24
Библиотека кодирования : libebml v1.2.3 + libmatroska v1.3.0

Видео
Идентификатор : 1
Формат : AVC
Формат/Информация : Advanced Video Codec
Профиль формата : Mаin@L4.0
Параметр CABAC формата : Да
Параметр ReFrames формата : 2 кадра
Идентификатор кодека : V_MPEG4/ISO/AVC
Продолжительность : 00:05:02
Битрейт : 15,6 Мбит/сек
Ширина : 1920 пикселей
Высота : 1080 пикселей
Соотношение сторон : 16:9
Режим частоты кадров : Постоянный
Частота кадров : 29,970 кадров/сек
Стандарт вещания : NTSC
Цветовое пространство : YUV
Субдискретизация насыщенности : 4:2:0
Битовая глубина : 8 бит
Тип развёртки : Прогрессивная
Бит/(Пиксели*Кадры) : 0.25
Размер потока : 566 Мбайт (94%)
Default : Да
Forced : Нет

Аудио
Идентификатор : 2
Формат : AC-3
Формат/Информация : Audio Coding 3
Расширение режима : CM (complete main)
Параметр Endianness формата : Big
Идентификатор кодека : A_AC3
Продолжительность : 00:05:02
Вид битрейта : Постоянный
Битрейт : 640 Кбит/сек
Каналы : 2 канала
Расположение каналов : Front: L R
Частота : 48,0 КГц
Битовая глубина : 16 бит
Метод сжатия : С потерями
Размер потока : 23,2 Мбайт (4%)
Default : Да
Forced : Нет
Скриншоты:


Смотреть Online

Детали торрента:
Название:GoPro HD: Dreams with Kelia Moniz - Roxy Wahine Classic 2011 (Music from SKY) [1080p] WEBRip
Дата добавления:03 Ноя 2012 03:12:09
Размер:601 MB
Раздают:1
Качают:0
Форум:Интересно обо всем

All rights reserved © 2015-2019