TORRENTS45.XYZ

Скачать Жизнь замечательных идей [выпуски 38-41] (2009-2012) SATRip


Жизнь замечательных идей [выпуски 38-41] (2009-2012) SATRip
Авторы рипа Chelur

Русское название: Жизнь замечательных идей [выпуски 38-41]
Оригинальное название: Жизнь замечательных идей [выпуски 38-41]
Режиссер / Телекомпания: атьяна Малова, Россия, ООО ТРК "Цивилизация", ГТРК "Культура"
Год выпуска: 2009-2012
Жанр: Документальный

Описание:
"Жизнь замечательных идей" - научно-популярный цикл, созданный телекомпанией "Цивилизация". В цикле рассказывается о наиболее грандиозных открытиях в области науки: теории происхождения жизни на Земле Чарльза Дарвина; иммунологии - науке о защитных силах организма; спорах вокруг закона всемирного тяготения Исаака Ньютона; гипотезах происхождения Вселенной, в частности, теории Альберта Эйнштейна; периодической таблице элементов Менделеева; производстве пенициллина и многом другом. Создатели цикла не просто расскажут об открытиях с новой точки зрения, но и обнародуют доселе неизвестные факты, связанные с вышеназванными учеными. В эфире телеканала "Культура" с 20 января 2009 года.

Список серий:

38. Сопротивление "0"
В 1911 году голландский физик Хейке Камерлинг-Оннес открыл явление сверхпроводимости ртути. Изучение сверхпроводимости веществ тут же стало одним им самых приоритетных направлений в науке и остается таковым до сих пор. История открытия феномена сверхпроводимости сама по себе уникальна. От первого наблюдения этого явления до первого объяснения его механизма прошло больше двадцати лет. И потом еще без малого два десятилетия понадобилось физикам для теоретического обоснования перехода веществ в сверхпроводящее состояние. Следующий этап изучения сверхпроводимости, продолжавшийся почти полвека, привел к целому ряду новых открытий и к целой серии Нобелевских премий.
39. Этот двуликий атом
Итальянский физик Энрико Ферми высказал предположение о существовании трансурановых элементов. Это заявление породило своеобразное соревнование среди европейских физиков и радиохимиков. Все они пытались получить трансурановые элементы, и считали, что за эту работу можно будет получить Нобелевскую премию. Немецкие физики Отто Ган и Фриц Штрассманн опубликовали в научном журнале статью, которая и считается открытием процесса расщепления тяжёлых ядер. Никто из учёных не предполагал, что эти абстрактные исследования приведут к одному из величайших открытий двадцатого века и закончатся созданием ядерного оружия...
40. Тринадцатый элемент
Электролитический метод получения промышленного алюминия называется "процесс Холла-Эру". Но к этому решению пришли сложным путем. Француз Поль Эру и американец Чарльз Холл - химики, ровесники, живущие в разных странах, на разных континентах, - даже не подозревая о существовании друг друга, изобрели один и тот же электролитический способ производства алюминия, и независимо друг от друга разработали совершенно идентичные методы получения промышленного алюминия. Тяжба тянулась долго. В конце концов, соглашение между изобретателями и патентными комитетами было достигнуто.
41. Умный йод
В этой серии: Пятьдесят третий элемент периодической таблицы - йод - был открыт двести лет назад. Одни считают, что пальма первенства в его открытии принадлежит французу Бернару Куртуа. Другие говорят, что Куртуа всего лишь случайно обнаружил новый элемент, а вот исследовал йод другой французский ученый - Жозеф-Луи Гей-Люссак. "Да что вы, - возмущаются третьи, - исследованием йода занимался не француз, а англичанин, Хэмфри Дэви". Настоящий же первооткрыватель пятьдесят третьего элемента никогда не вступал ни в какие споры за приоритет. Он просто увлечённо занимался своим делом.
Продолжительность: 4 х ~ 00:26:00

Перевод: Русский

Видеокодек: DivX 4/5/6
Битрейт видео: ~25.00fps 1500kbps
Размер кадра: 704x528
Качество видео: SATRip
Аудиокодек: MP3
Битрейт аудио: 48000Hz stereo 128kbps

MediaInfo:

Формат : AVI
Формат/Информация : Audio Video Interleave
Размер файла : 301 Мбайт
Продолжительность : 26 м.
Общий поток : 1616 Кбит/сек
Библиотека кодирования : VirtualDub-MPEG2 build 24600/release

Видео
Идентификатор : 0
Формат : MPEG-4 Visual
Параметр BVOP формата : 1
Параметр QPel формата : Нет
Параметр GMC формата : Без точки перехода
Параметр матрицы формата : Default (H.263)
Режим смешивания : Сжатый битовый поток
Идентификатор кодека : DX50
Идентификатор кодека/Подсказка : DivX 5
Продолжительность : 26 м.
Битрейт : 1479 Кбит/сек
Ширина : 704 пикселя
Высота : 528 пикселей
Соотношение сторон : 4:3
Частота кадров : 25,000 кадров/сек
Цветовое пространство : YUV
Субдискретизация насыщенности : 4:2:0
Битовая глубина : 8 бит
Тип развёртки : Прогрессивная
Метод сжатия : С потерями
Бит/(Пиксели*Кадры) : 0.159
Размер потока : 275 Мбайт (91%)
Библиотека кодирования : DivX 6.8.5 (UTC 2009-08-20)

Аудио
Идентификатор : 1
Формат : MPEG Audio
Версия формата : Version 1
Профиль формата : Layer 3
Режим : Joint stereo
Расширение режима : MS Stereo
Идентификатор кодека : 55
Идентификатор кодека/Подсказка : MP3
Продолжительность : 26 м.
Вид битрейта : Постоянный
Битрейт : 128 Кбит/сек
Каналы : 2 канала
Частота : 48,0 КГц
Метод сжатия : С потерями
Размер потока : 23,8 Мбайт (8%)
Выравнивание : Разделение по промежуткам
Продолжительность промежутка : 40 мс. (1,00 видеокадр)
Время предзагрузки промежутка : 500 мс.

Общее
Полное имя : D:\Zagruzka\JZI_38_41\39_Ehtot_dvulikij_atom.avi
Формат : AVI
Формат/Информация : Audio Video Interleave
Размер файла : 301 Мбайт
Продолжительность : 26 м.
Общий поток : 1617 Кбит/сек
Библиотека кодирования : VirtualDub-MPEG2 build 24600/release

Видео
Идентификатор : 0
Формат : MPEG-4 Visual
Параметр BVOP формата : 1
Параметр QPel формата : Нет
Параметр GMC формата : Без точки перехода
Параметр матрицы формата : Default (H.263)
Режим смешивания : Сжатый битовый поток
Идентификатор кодека : DX50
Идентификатор кодека/Подсказка : DivX 5
Продолжительность : 26 м.
Битрейт : 1479 Кбит/сек
Ширина : 704 пикселя
Высота : 528 пикселей
Соотношение сторон : 4:3
Частота кадров : 25,000 кадров/сек
Цветовое пространство : YUV
Субдискретизация насыщенности : 4:2:0
Битовая глубина : 8 бит
Тип развёртки : Прогрессивная
Метод сжатия : С потерями
Бит/(Пиксели*Кадры) : 0.159
Размер потока : 276 Мбайт (91%)
Библиотека кодирования : DivX 6.8.5 (UTC 2009-08-20)

Аудио
Идентификатор : 1
Формат : MPEG Audio
Версия формата : Version 1
Профиль формата : Layer 3
Режим : Joint stereo
Расширение режима : MS Stereo
Идентификатор кодека : 55
Идентификатор кодека/Подсказка : MP3
Продолжительность : 26 м.
Вид битрейта : Постоянный
Битрейт : 128 Кбит/сек
Каналы : 2 канала
Частота : 48,0 КГц
Метод сжатия : С потерями
Размер потока : 23,9 Мбайт (8%)
Выравнивание : Разделение по промежуткам
Продолжительность промежутка : 40 мс. (1,00 видеокадр)
Время предзагрузки промежутка : 500 мс.

Общее
Полное имя : D:\Zagruzka\JZI_38_41\40_Trinadcatyj_ehlement.avi
Формат : AVI
Формат/Информация : Audio Video Interleave
Размер файла : 303 Мбайт
Продолжительность : 25 м.
Общий поток : 1638 Кбит/сек
Программа кодирования : VirtualDubMod 1.5.10.3 | www.virtualdub-fr.org || (build 2550/release)
Библиотека кодирования : VirtualDubMod build 2550/release

Видео
Идентификатор : 0
Формат : MPEG-4 Visual
Профиль формата : Simple@L1
Параметр BVOP формата : Нет
Параметр QPel формата : Нет
Параметр GMC формата : Без точки перехода
Параметр матрицы формата : Default (H.263)
Идентификатор кодека : DIVX
Идентификатор кодека/Информация : Project Mayo
Идентификатор кодека/Подсказка : DivX 4
Продолжительность : 25 м.
Битрейт : 1500 Кбит/сек
Ширина : 704 пикселя
Высота : 528 пикселей
Соотношение сторон : 4:3
Частота кадров : 25,000 кадров/сек
Цветовое пространство : YUV
Субдискретизация насыщенности : 4:2:0
Битовая глубина : 8 бит
Тип развёртки : Прогрессивная
Метод сжатия : С потерями
Бит/(Пиксели*Кадры) : 0.161
Размер потока : 277 Мбайт (92%)
Библиотека кодирования : Lavc53.14.0

Аудио
Идентификатор : 1
Формат : MPEG Audio
Версия формата : Version 1
Профиль формата : Layer 3
Режим : Joint stereo
Расширение режима : MS Stereo
Идентификатор кодека : 55
Идентификатор кодека/Подсказка : MP3
Продолжительность : 25 м.
Вид битрейта : Постоянный
Битрейт : 128 Кбит/сек
Каналы : 2 канала
Частота : 48,0 КГц
Метод сжатия : С потерями
Размер потока : 23,7 Мбайт (8%)
Выравнивание : Соединение по промежуткам
Продолжительность промежутка : 40 мс. (1,00 видеокадр)
Время предзагрузки промежутка : 504 мс.
Библиотека кодирования : LAME3.99
Настройки программы : -m j -V 4 -q 2 -lowpass 17 -b 128

Общее
Полное имя : D:\Zagruzka\JZI_38_41\41_Umnyj_jod.avi
Формат : AVI
Формат/Информация : Audio Video Interleave
Размер файла : 301 Мбайт
Продолжительность : 26 м.
Общий поток : 1616 Кбит/сек
Библиотека кодирования : VirtualDub-MPEG2 build 24600/release

Видео
Идентификатор : 0
Формат : MPEG-4 Visual
Параметр BVOP формата : 1
Параметр QPel формата : Нет
Параметр GMC формата : Без точки перехода
Параметр матрицы формата : Default (H.263)
Режим смешивания : Сжатый битовый поток
Идентификатор кодека : DX50
Идентификатор кодека/Подсказка : DivX 5
Продолжительность : 26 м.
Битрейт : 1479 Кбит/сек
Ширина : 704 пикселя
Высота : 528 пикселей
Соотношение сторон : 4:3
Частота кадров : 25,000 кадров/сек
Цветовое пространство : YUV
Субдискретизация насыщенности : 4:2:0
Битовая глубина : 8 бит
Тип развёртки : Прогрессивная
Метод сжатия : С потерями
Бит/(Пиксели*Кадры) : 0.159
Размер потока : 275 Мбайт (91%)
Библиотека кодирования : DivX 6.8.5 (UTC 2009-08-20)

Аудио
Идентификатор : 1
Формат : MPEG Audio
Версия формата : Version 1
Профиль формата : Layer 3
Режим : Joint stereo
Расширение режима : MS Stereo
Идентификатор кодека : 55
Идентификатор кодека/Подсказка : MP3
Продолжительность : 26 м.
Вид битрейта : Постоянный
Битрейт : 128 Кбит/сек
Каналы : 2 канала
Частота : 48,0 КГц
Метод сжатия : С потерями
Размер потока : 23,8 Мбайт (8%)
Выравнивание : Разделение по промежуткам
Продолжительность промежутка : 40 мс. (1,00 видеокадр)
Время предзагрузки промежутка : 500 мс.
Выпуски серии "Жизнь замечательных идей"

Скриншоты:




Детали торрента:
Название:Жизнь замечательных идей [выпуски 38-41] (2009-2012) SATRip
Дата добавления:13 Окт 2012 15:20:03
Размер:1,18 GB
Раздают:1
Качают:0
Форум:Интересно обо всем

All rights reserved © 2015-2019