TORRENTS45.XYZ

Скачать Утиные Истории. Алмазный Остров / DuckTales. Diamond Island (1987) SATRip


Утиные Истории. Алмазный Остров / DuckTales. Diamond Island (1987) SATRip
Русское название: Утиные Истории. Алмазный Остров
Оригинальное название: DuckTales. Diamond Island
Год выпуска: 1987
Жанр: Детский, Приключения
Перевод: Профессиональный (полное дублирование) (Нева-Фильм)
Режиссер: Фред Вольф

Описание фильма:
Скрудж МакДак купил у своего завистника Глонгольда остров, внешне ничем не привлекательный, но как оказалось он содержит месторождение Алмазов. Узнав об этом Глонгольд прилагает все усилия чтобы помешать Скруджу. Взрывает часть острова и теперь у Скруджа лишь маленький островок на котором нет ничего. На счастье Винт Разболтайло изобрел машину времени и теперь Скруджу и его племянникам предстоит отправится в прошлое чтобы изменить свое будущее. Но как всегда все идет совсем не так как хотелось бы...
Продолжительность: 01:40:11
Качество видео: SATRip
Дополнительно: Список серий в сборнике(~20мин в среднем):
1. Duck Tales_The Duck who would be the king.avi
2. Duck Tales_Marking_time.avi
3. Duck Tales_Ducks on the lam.avi
4. Duck Tales_Bubba_Trubba.avi
5. Duck Tales_Al-Cubbas_cave.avi
Все серии объединены общим сюжетом(описание сюжета выше)
Видеокодек: Xvid
Битрейт видео: ~2188 Кбит/сек
Размер кадра: 720х552
Аудиокодек: AC3 2.0
Битрейт аудио: 192 Кбит/сек, 48,0 КГц

MediaInfo

Формат : AVI
Формат/Информация : Audio Video Interleave
Размер файла : 1,67 Гбайт
Продолжительность : 1 ч. 40 м.
Общий поток : 2390 Кбит/сек
Программа кодирования : VirtualDubMod 1.5.10.2 (build 2540/release)
Библиотека кодирования : VirtualDubMod build 2540/release

Видео
Идентификатор : 0
Формат : MPEG-4 Visual
Профиль формата : Advanced Simple@L5
Параметр BVOP формата : 1
Параметр QPel формата : Нет
Параметр GMC формата : Без точки перехода
Параметр матрицы формата : Default (MPEG)
Идентификатор кодека : XVID
Идентификатор кодека/Подсказка : XviD
Продолжительность : 1 ч. 40 м.
Битрейт : 2188 Кбит/сек
Ширина : 720 пикселей
Высота : 552 пикселя
Соотношение сторон : 4:3
Частота кадров : 25,000 кадров/сек
Цветовое пространство : YUV
Субдискретизация насыщенности : 4:2:0
Битовая глубина : 8 бит
Тип развёртки : Прогрессивная
Метод сжатия : С потерями
Бит/(Пиксели*Кадры) : 0.220
Размер потока : 1,53 Гбайт (92%)
Библиотека кодирования : XviD 1.2.1 (UTC 2008-12-04)

Аудио
Идентификатор : 1
Формат : AC-3
Формат/Информация : Audio Coding 3
Расширение режима : CM (complete main)
Параметр Endianness формата : Big
Идентификатор кодека : 2000
Продолжительность : 1 ч. 40 м.
Вид битрейта : Постоянный
Битрейт : 192 Кбит/сек
Каналы : 2 канала
Расположение каналов : Front: L R
Частота : 48,0 КГц
Битовая глубина : 16 бит
Метод сжатия : С потерями
Размер потока : 138 Мбайт (8%)
Выравнивание : Соединение по промежуткам
Продолжительность промежутка : 40 мс. (1,00 видеокадр)
Время предзагрузки промежутка : 512 мс.
Скриншоты:

RiP By Chu-pa

Приятного просмотра
и не забываем говорить СПАСИБО...


Детали торрента:
Название:Утиные Истории. Алмазный Остров / DuckTales. Diamond Island (1987) SATRip
Дата добавления:16 Сен 2012 22:12:05
Размер:1,67 GB
Раздают:1
Качают:0
Форум:Зарубежные Мультсериалы

All rights reserved © 2015-2019