TORRENTS45.XYZ

Скачать Четверо / The Four / Si Da Ming Bu (2012) DVDRip


Четверо / The Four / Si Da Ming Bu (2012) DVDRip
Год выпуска: 2012
Производство: Китай / Enlight Pictures
Жанр: Фэнтези, Боевик, Комедия
Перевод: Одноголосый закадровый

Описание фильма:
Во время операции по захвату подозреваемого в хищении монетной формы глава Шестого отдела Лорд Лю столкнулся нос к носу с загадочным Чжугэ Чжэнво, представившимся руководителем государственной организации "Небесная Полиция", которая подчиняется непосредственно императору. Теперь у Лорда Лю целых две проблемы: наводнившие город фальшивые монеты и странная организация, состоящая из людей со сверхъестественными способностями...

Режиссер: Гордон Чан, Джанет Чан
Актеры: Чао Ден, Лю Ифэй, Рональд Чэн, Колин Чоу, Энтони Вонг Чау-Санг, Сиобо Ву, Чэнь Тайшэн, И Ян Цзян, Анна Фанг, Рю Кохата

Продолжительность: 01:53:44
Качество видео: DVDRip
Контейнер: MKV



Дата мировой премьеры: 12 июля 2012

Видео: MPEG-4 XviD, 704x288 (2.40:1), 23.976 fps, ~1296 Kb/s (0.267 bit/pixel)
Аудио#1: AC-3, 48.0 KHz, 5.1 ch, 448 Kb/s, CBR | Russian
Аудио#2: AC-3, 48.0 KHz, 5.1 ch, 384 Kb/s, CBR | Chinese

MediaInfo

Код:
Общее
Уникальный идентификатор                 : 185019906908127135065938478578962100433 (0x8B3189B3F590C2A1B55F617FBE1D70D1)
Полное имя                               : The.Four.2012.mkv
Формат                                   : Matroska
Версия формата                           : Version 2
Размер файла                             : 1,79 Гбайт
Продолжительность                        : 01:53:44
Общий поток                              : 2171 Кбит/сек
Дата кодирования                         : UTC 2012-08-26 12:58:19
Программа кодирования                    : mkvmerge v5.7.0 ('The Whirlwind') built on Jul  8 2012 20:08:51
Библиотека кодирования                   : libebml v1.2.3 + libmatroska v1.3.0

Видео
Идентификатор                            : 1
Формат                                   : MPEG-4 Visual
Профиль формата                          : Advanced Simple@L5
Параметр BVOP формата                    : Да
Параметр QPel формата                    : Нет
Параметр GMC формата                     : Без точки перехода
Параметр матрицы формата                 : Default (MPEG)
Идентификатор кодека                     : V_MS/VFW/FOURCC / XVID
Идентификатор кодека/Подсказка           : XviD
Продолжительность                        : 01:53:44
Битрейт                                  : 1296 Кбит/сек
Ширина                                   : 704 пикселя
Высота                                   : 288 пикселей
Соотношение сторон                       : 2,40:1
Режим частоты кадров                     : Постоянный
Частота кадров                           : 23,976 кадра/сек
Цветовое пространство                    : YUV
Субдискретизация насыщенности            : 4:2:0
Битовая глубина                          : 8 бит
Тип развёртки                            : Прогрессивная
Метод сжатия                             : С потерями
Бит/(Пиксели*Кадры)                      : 0.267
Размер потока                            : 1,07 Гбайт (60%)
Библиотека кодирования                   : XviD 1.2.0.dev47 (UTC 2006-11-01)
Default                                  : Да
Forced                                   : Нет

Аудио #1
Идентификатор                            : 2
Формат                                   : AC-3
Формат/Информация                        : Audio Coding 3
Расширение режима                        : CM (complete main)
Параметр Endianness формата              : Big
Режим смешивания                         : Header stripping
Идентификатор кодека                     : A_AC3
Продолжительность                        : 01:53:44
Вид битрейта                             : Постоянный
Битрейт                                  : 448 Кбит/сек
Каналы                                   : 6 каналов
Расположение каналов                     : Front: L C R, Side: L R, LFE
Частота                                  : 48,0 КГц
Битовая глубина                          : 16 бит
Метод сжатия                             : С потерями
Размер потока                            : 379 Мбайт (21%)
Default                                  : Да
Forced                                   : Нет

Аудио #2
Идентификатор                            : 3
Формат                                   : AC-3
Формат/Информация                        : Audio Coding 3
Расширение режима                        : CM (complete main)
Параметр Endianness формата              : Big
Режим смешивания                         : Header stripping
Идентификатор кодека                     : A_AC3
Продолжительность                        : 01:53:44
Вид битрейта                             : Постоянный
Битрейт                                  : 384 Кбит/сек
Каналы                                   : 6 каналов
Расположение каналов                     : Front: L C R, Side: L R, LFE
Частота                                  : 48,0 КГц
Битовая глубина                          : 16 бит
Метод сжатия                             : С потерями
Размер потока                            : 325 Мбайт (18%)
Default                                  : Нет
Forced                                   : Нет
Скриншоты:

Реставрация от: Viсtоr

Смотреть Online

Детали торрента:
Название:Четверо / The Four / Si Da Ming Bu (2012) DVDRip
Дата добавления:02 Сен 2012 20:02:43
Размер:1,79 GB
Раздают:
Качают:0
Форум:Азиатское кино (HD*Rip/LQ, DVDRip, SATRip, VHSRip)

All rights reserved © 2015-2019