TORRENTS45.XYZ

Скачать Бесстрашный / Fearless / Huo Yuan Jia (2006) BDRip


Бесстрашный / Fearless / Huo Yuan Jia (2006) BDRip
«Fate Made Him A Warrior, Courage Made Him A Hero»
Год выпуска: 2006
Производство: Китай, Гонконг, США / Beijing Film Studio, China Film Co-Production Corporation, China Film Group
Жанр: Боевик, Драма, Биография, Спорт

Описание фильма:
Начало 20 века. Хо Юаньцзя мечтает пойти по стопам своего отца, став бойцом мирового класса. Он просто ослеплен желанием стать величайшим и поднять престиж своего дома. Выиграв множество боев, он достигает цели, но это не приносит счастья, а, наоборот, случается ужасная трагедия — погибают его близкие. Переполненный горем, постигшим его, он идет куда глаза глядят. Хо получает приют в одной деревеньке, живет и работает вместе с крестьянами. И именно там к нему приходит понимание истинного назначения боевых искусств. Он возвращается домой и открывает собственную школу. У него все больше учеников, его учение приобретает все больше сторонников. И вот ему выпадает шанс отстоять честь своей школы и страны в целом, на арене крупного международного чемпионата...

Режиссер: Ронни Ю
Актеры: Джет Ли, Шидо Накамура, Бетти Сунь, Йонг Донг, Хи Чинг Пав, Юн Ку, Нэйтан Джонс, Брэндон Ри, Энтони Де Лонгис, Жан Клод Лёйе

Продолжительность: 01:43:41
Качество видео: BDRip

Перевод: Дублированный
Роли озвучивают: Илья Хвостиков, Александр Комлев, Андрей Бархударов, Анна Каменкова, Рудольф Панков



Дата мировой премьеры: 26 января 2006
Дата российской премьеры: 9 ноября 2006, «West»
Дата выхода DVD релиза: 26 февраля 2007, «West Video»

Видео: MPEG-4 XviD, 720x304 (2.35:1), 23.976 fps, ~2099 Kb/s (0.400 bit/pixel)
Аудио#1: AC-3, 48.0 KHz, 5.1 ch, 448 Kb/s, CBR | Russian
Аудио#2: AC-3, 48.0 KHz, 5.1 ch, 448 Kb/s, CBR | Chinese

MediaInfo

Код:
Общее
Полное имя                               : Besstrashnyj.avi
Формат                                   : AVI
Формат/Информация                        : Audio Video Interleave
Профиль формата                          : OpenDML
Размер файла                             : 2,18 Гбайт
Продолжительность                        : 1 ч. 43 м.
Общий поток                              : 3012 Кбит/сек
Название фильма                          : Besstrashnyj.TC.2006.DUAL.BDRip.XviD.AC3.-HQCLUB
Режиссёр                                 : Joker
Жанр                                     : боевик, биография, история
Программа кодирования                    : VirtualDubMod 1.5.10.2 (build 2542/release)
Правообладатель                          : http://hqclub.net/
Примечание                               : 01.08.2012

Видео
Идентификатор                            : 0
Формат                                   : MPEG-4 Visual
Профиль формата                          : Advanced Simple@L5
Параметр BVOP формата                    : 1
Параметр QPel формата                    : Нет
Параметр GMC формата                     : Без точки перехода
Параметр матрицы формата                 : Выборочная
Идентификатор кодека                     : XVID
Идентификатор кодека/Подсказка           : XviD
Продолжительность                        : 1 ч. 43 м.
Битрейт                                  : 2099 Кбит/сек
Ширина                                   : 720 пикселей
Высота                                   : 304 пикселя
Соотношение сторон                       : 2,35:1
Частота кадров                           : 23,976 кадра/сек
Цветовое пространство                    : YUV
Субдискретизация насыщенности            : 4:2:0
Битовая глубина                          : 8 бит
Тип развёртки                            : Прогрессивная
Метод сжатия                             : С потерями
Бит/(Пиксели*Кадры)                      : 0.400
Размер потока                            : 1,52 Гбайт (70%)
Библиотека кодирования                   : XviD 72

Аудио #1
Идентификатор                            : 1
Формат                                   : AC-3
Формат/Информация                        : Audio Coding 3
Расширение режима                        : CM (complete main)
Параметр Endianness формата              : Big
Идентификатор кодека                     : 2000
Продолжительность                        : 1 ч. 43 м.
Вид битрейта                             : Постоянный
Битрейт                                  : 448 Кбит/сек
Каналы                                   : 6 каналов
Расположение каналов                     : Front: L C R, Side: L R, LFE
Частота                                  : 48,0 КГц
Битовая глубина                          : 16 бит
Метод сжатия                             : С потерями
Задержка видео                           : 500 мс.
Размер потока                            : 332 Мбайт (15%)
Выравнивание                             : Разделение по промежуткам
Продолжительность промежутка             : 42  мс. (1,00 видеокадр)
Время предзагрузки промежутка            : 500  мс.

Аудио #2
Идентификатор                            : 2
Формат                                   : AC-3
Формат/Информация                        : Audio Coding 3
Расширение режима                        : CM (complete main)
Параметр Endianness формата              : Big
Идентификатор кодека                     : 2000
Продолжительность                        : 1 ч. 43 м.
Вид битрейта                             : Постоянный
Битрейт                                  : 448 Кбит/сек
Каналы                                   : 6 каналов
Расположение каналов                     : Front: L C R, Side: L R, LFE
Частота                                  : 48,0 КГц
Битовая глубина                          : 16 бит
Метод сжатия                             : С потерями
Размер потока                            : 332 Мбайт (15%)
Выравнивание                             : Разделение по промежуткам
Продолжительность промежутка             : 42  мс. (1,00 видеокадр)
Время предзагрузки промежутка            : 500  мс.
Скриншоты:

Дополнительные скриншоты

Реставрация от: Viсtоr

Смотреть Online

Детали торрента:
Название:Бесстрашный / Fearless / Huo Yuan Jia (2006) BDRip
Дата добавления:03 Авг 2012 16:34:38
Размер:2,18 GB
Раздают:2
Качают:0
Форум:Азиатское кино (HD*Rip/LQ, DVDRip, SATRip, VHSRip)

All rights reserved © 2015-2019