TORRENTS45.XYZ

Скачать Радужная природа / Rainbow Nature (2008) HDTVRip [H.264/720p]


Радужная природа / Rainbow Nature (2008)

Русское название: Радужная природа
Оригинальное название: Rainbow Nature
Режиссер / Телекомпания: Марика Беккер, ЮАР, NHU Africa
Год выпуска: 2008
Жанр: Документальный, флора, фауна

Описание:
На юге Африки течет Оранжевая река, на которой находится один из крупнейших водопадов мира - Ауграбис. В солнечные дни он сверкает радугами в миллионах падающих капельках воды. Но даже в пасмурные дни здесь можно увидеть маленькие радуги - это ящерки, чьи чешуйки пестрят полным набором цветов.

Продолжительность: 00:50:39

Перевод: Профессиональный двухголосый

Качество видео: HDTVRip [720p]
Видео: MPEG-4 AVC, 3505 Кбит/с, 1280х720
Аудио: АС3, 2 ch, 192 Кбит/с

MediaInfo

General
Complete name : D:\Загрузки\Раздачи\Raduzhnaja.priroda.2008.x264.HDTVRip.720p.mkv
Format : Matroska
Format version : Version 1
File size : 1.33 GiB
Duration : 50mn 38s
Overall bit rate : 3 772 Kbps
Encoded date : UTC 2012-05-08 05:37:04
Writing library : WonderShare Matroska Muxer

Video
ID : 1
Format : AVC
Format/Info : Advanced Video Codec
Format profile : Baseline@L3.0
Format settings, CABAC : No
Format settings, ReFrames : 1 frame
Format settings, GOP : M=1, N=25
Codec ID : V_MPEG4/ISO/AVC
Duration : 50mn 38s
Bit rate : 3 505 Kbps
Width : 1 280 pixels
Height : 720 pixels
Display aspect ratio : 16:9
Frame rate : 25.000 fps
Color space : YUV
Chroma subsampling : 4:2:0
Bit depth : 8 bits
Scan type : Progressive
Bits/(Pixel*Frame) : 0.152
Stream size : 1.24 GiB (93%)
Default : Yes
Forced : No

Audio
ID : 2
Format : AC-3
Format/Info : Audio Coding 3
Mode extension : CM (complete main)
Codec ID : A_AC3
Duration : 50mn 38s
Bit rate mode : Constant
Bit rate : 192 Kbps
Channel(s) : 2 channels
Channel positions : Front: L R
Sampling rate : 48.0 KHz
Bit depth : 16 bits
Compression mode : Lossy
Delay relative to video : -120ms
Stream size : 69.5 MiB (5%)
Default : Yes
Forced : No
Скриншоты:



Детали торрента:
Название:Радужная природа / Rainbow Nature (2008) HDTVRip [H.264/720p]
Дата добавления:21 Июл 2012 16:50:32
Размер:1,33 GB
Раздают:1
Качают:0
Форум:Интересно обо всем

All rights reserved © 2015-2019