TORRENTS45.XYZ

Скачать Двойник дьявола / The Devil's Double (2011) [H.264] HDRip


Двойник дьявола / The Devil's Double (2011) HDRip
«Секс... власть... куча денег, что ещё нужно 'принцу' у которого есть всё?»

Русское название: Двойник дьявола
Оригинальное название: The Devil's Double
Год выпуска: 2011
Производство: Corrino Media Corporation / Corsan / Staccato Films (Нидерланды, Бельгия)
Жанр: Боевик, драма, биография
Перевод: Дублированный

Дата мировой премьеры: 22 января 2011
Дата российской премьеры: 11 августа 2011, «West»
Дата выхода DVD / Blu-Ray релиза: 13 декабря 2011, «West Video»

Режиссер: Ли Тамахори
Актеры: Доминик Купер, Людивин Санье, Раад Рави, Филип Куэст, Мимун Оайясса, Халид Лэйт, Дар Салим, Нассер Мемарзиа, Мем Ферда, Пано Масти

Описание фильма:
Секс… Власть… Слишком много денег… Что еще может понадобиться «Принцу», у которого есть все? Разве что двойник. На него можно спихнуть всю рутину, а в опасных ситуациях он примет удар на себя. Но и Двойник не останется без награды — он получит все, что есть у принца. Все, кроме женщины, которая станет единственным, что Двойник по-настоящему возжелает.



Продолжительность: 01:48:52
Качество видео: HDRip

Видеокодек: MPEG4_AVC / H.264
Битрейт видео: ~1527 kbps, Бит/(Пиксели*Кадры): 0.163
Размер кадра: 960x408
Аудиокодек: AC3 5.1
Битрейт аудио: 384 kbps

MediaInfo...

Полное имя : D:\Dvoinik.diavola.2011.H.264.HDRip.mkv
Формат : Matroska
Версия формата : Version 2
Размер файла : 1,45 Гбайт
Продолжительность : 1 ч. 48 м.
Общий поток : 1912 Кбит/сек
Дата кодирования : UTC 2011-12-11 07:25:35
Программа кодирования : mkvmerge v4.6.0 ('Still Crazy After All These Years') сборка от Apr 1 2011 21:01:49
Библиотека кодирования : libebml v1.2.0 + libmatroska v1.1.0

Видео
Идентификатор : 1
Формат : AVC
Формат/Информация : Advanced Video Codec
Профиль формата : High@L4.1
Параметр CABAC формата : Да
Параметр ReFrames формата : 4 кадра
Идентификатор кодека : V_MPEG4/ISO/AVC
Продолжительность : 1 ч. 48 м.
Битрейт : 1527 Кбит/сек
Ширина : 960 пикс.
Высота : 408 пикс.
Соотношение сторон : 2,35:1
Частота кадров : 23,976 кадр/сек
Цветовое пространство : YUV
Подвыборка цветности : 4:2:0
Битовая глубина : 8 бит
Тип развёртки : Прогрессивная
Бит/(Пиксели*Кадры) : 0.163
Размер потока : 1,13 Гбайт (78%)
Библиотека кодирования : x264 core 115 r1937 aa21558
Настройки программы : cabac=1 / ref=3 / deblock=1:-1:-1 / analyse=0x3:0x113 / me=hex / subme=7 / psy=1 / psy_rd=1.00:0.10 / mixed_ref=1 / me_range=16 / chroma_me=1 / trellis=1 / 8x8dct=1 / cqm=0 / deadzone=21,11 / fast_pskip=1 / chroma_qp_offset=-3 / threads=6 / sliced_threads=0 / nr=0 / decimate=1 / interlaced=0 / bluray_compat=0 / constrained_intra=0 / bframes=3 / b_pyramid=2 / b_adapt=1 / b_bias=0 / direct=3 / weightb=1 / open_gop=0 / weightp=2 / keyint=250 / keyint_min=23 / scenecut=40 / intra_refresh=0 / rc_lookahead=40 / rc=2pass / mbtree=1 / bitrate=1527 / ratetol=1.0 / qcomp=0.60 / qpmin=0 / qpmax=69 / qpstep=4 / cplxblur=20.0 / qblur=0.5 / ip_ratio=1.40 / aq=1:1.00

Аудио
Идентификатор : 2
Формат : AC-3
Формат/Информация : Audio Coding 3
Расширение режима : CM (complete main)
Идентификатор кодека : A_AC3
Продолжительность : 1 ч. 48 м.
Вид битрейта : Постоянный
Битрейт : 384 Кбит/сек
Каналы : 6 каналов
Расположение каналов : Front: L C R, Side: L R, LFE
Частота : 48,0 КГц
Битовая глубина : 16 бит
Метод сжатия : С потерями
Размер потока : 299 Мбайт (20%)
Скриншоты:


Смотреть Online

Детали торрента:
Название:Двойник дьявола / The Devil's Double (2011) [H.264] HDRip
Дата добавления:12 Дек 2011 19:28:08
Размер:1,45 GB
Раздают:2
Качают:0
Форум:Зарубежные Фильмы (HD*Rip/LQ, DVDRip, SATRip, VHSRip)

All rights reserved © 2015-2019