TORRENTS45.XYZ

Скачать Jon Lord - 2 Альбома (1982, 2008) [FLAC, WavPack|Lossless]<Progressive Rock, Hard Rock, Classical>


Jon Lord - 2 Альбома (1982, 2008)


Год: 1982,2008
Жанр: Progressive Rock, Hard Rock, Classical
Продолжительность: 02:28:23

Кодек: FLAC, WavPack
Тип рипа: image + .cue
Битрейт: Lossless

1982 - Before I Forget

Продолжительноcть:01:16:07
Кодек: FLAC

Треклист:
01. Chance On A Feeling
02. Tender Babes
03. Hollywood Rock And Roll
04. Bach On To This
05. Before I Forget
06. Say It`s All Right
07. Burntwood
08. Where Are You?
09. Going Home
10. Pavane
11. Lady
12. For A Friend
13. Interview
Треклист:
Альбомы:
1982 - Before I Forget
2008 - Boom Of The Tingling Strings

Отчёт ЕАС:

Код:

EAC extraction logfile from 24. September 2007, 13:28 for CD
Jon Lord / Before I Forget

Used drive  : Optiarc DVD RW AD-7540A   Adapter: 1  ID: 0
Read mode   : Secure with NO C2, accurate stream, disable cache
Read offset correction : 0
Overread into Lead-In and Lead-Out : No

Used output format : C:\Program Files\FLAC\flac.exe   (User Defined Encoder)
                     128 kBit/s
                     Additional command line options : -V -8 -T "artist=%a" -T "title=%t" -T "album=%g" -T "date=%y" -T "tracknumber=%n" -T "genre=%m" %s
                     Use compression offset : 0

Other options      :
    Fill up missing offset samples with silence : Yes
    Delete leading and trailing silent blocks : No
    Installed external ASPI interface

Range status and errors
Selected range
     Filename D:\EAC\Jon Lord - Before I Forget.wav.wav.wav

     Peak level 94.7 %
     Range quality 100.0 %
     CRC 0EAB8C13
     Copy OK

No errors occured

End of status report

Отчёт auCDtect Task manager:

Код:

-----------------------

DON'T MODIFY THIS FILE

-----------------------

PERFORMER: auCDtect Task Manager, ver. 1.5.1RC4 build 1.5.1.5
Copyright (c) 2008-2010 y-soft. All rights reserved
http://y-soft.org

ANALYZER: auCDtect: CD records authenticity detector, version 0.8.2
Copyright (c) 2004 Oleg Berngardt. All rights reserved.
Copyright (c) 2004 Alexander Djourik. All rights reserved.

FILE: Jon Lord - Before I Forget.wav.wav.flac
  Size: 415145348 Hash: D0B40856A423B74B6DFEAA68C761037A Accuracy: -m0
  Conclusion: CDDA 100%
  Signature: B3ADD8D1CEB3648CC4450BA7C70159AB006E0852

2008 - Boom Of The Tingling Strings

Продолжительноcть:01:12:16
Кодек:WavPack

Треклиcт:
01. Boom of the Tingling Strings 1 mvt: Adagio Assai
02. Boom of the Tingling Strings 2 mvt: l'Istesso Tempo
03. Boom of the Tingling Strings 3 mvt: Adagio
04. Boom of the Tingling Strings 4 mvt: Allegro Giusto
05. Disguises 1 mvt: M.A.S.Q.U.E. Poco Adagio - Allegro Moderato E Poco Pesante
06. Disguises 2 mvt: Music for Miriam. Adagio
07. Disguises 3 mvt: Il Buffone (G.C.). Allegro Vivace

Spectrogram:

Отчёт ЕАС:

Код:

Exact Audio Copy V0.99 prebeta 4 from 23. January 2008

EAC extraction logfile from 25. December 2008, 21:59

Jon Lord / Boom of the Tingling Strings

Used drive  : _NEC    DVD_RW ND-3570A   Adapter: 4  ID: 0

Read mode               : Secure
Utilize accurate stream : Yes
Defeat audio cache      : Yes
Make use of C2 pointers : No

Read offset correction                      : 48
Overread into Lead-In and Lead-Out          : No
Fill up missing offset samples with silence : Yes
Delete leading and trailing silent blocks   : No
Null samples used in CRC calculations       : Yes
Used interface                              : Installed external ASPI interface

Used output format     : Internal WAV Routines
Sample format          : 44.100 Hz; 16 Bit; Stereo
Use compression offset : 0

TOC of the extracted CD

     Track |   Start  |  Length  | Start sector | End sector
    ---------------------------------------------------------
        1  |  0:00.00 |  8:52.09 |         0    |    39908
        2  |  8:52.09 |  6:22.60 |     39909    |    68618
        3  | 15:14.69 |  7:25.70 |     68619    |   102063
        4  | 22:40.64 | 13:55.34 |    102064    |   164722
        5  | 36:36.23 | 14:22.66 |    164723    |   229438
        6  | 50:59.14 | 10:16.73 |    229439    |   275711
        7  | 61:16.12 | 11:00.12 |    275712    |   325223
        8  | 74:48.24 |  5:03.37 |    336624    |   359385

Range status and errors

Selected range

     Filename D:\utorrent\releases\Jon Lord - Boom of the Tingling Strings.wav

     Peak level 100.0 %
     Range quality 100.0 %
     Copy CRC F2EAFE46
     Copy OK

No errors occurred

AccurateRip summary

Track  1  accurately ripped (confidence 9)  [24115908]
Track  2  accurately ripped (confidence 9)  [36473970]
Track  3  accurately ripped (confidence 9)  [E00E4331]
Track  4  accurately ripped (confidence 9)  [7C0AFDA7]
Track  5  accurately ripped (confidence 9)  [E98BFFE8]
Track  6  accurately ripped (confidence 9)  [9807E514]
Track  7  accurately ripped (confidence 9)  [2C615C98]

All tracks accurately ripped

End of status report

Отчёт auCDtect Task manager:

Код:

-----------------------

DON'T MODIFY THIS FILE

-----------------------

PERFORMER: auCDtect Task Manager, ver. 1.5.1RC4 build 1.5.1.5
Copyright (c) 2008-2010 y-soft. All rights reserved
http://y-soft.org

ANALYZER: auCDtect: CD records authenticity detector, version 0.8.2
Copyright (c) 2004 Oleg Berngardt. All rights reserved.
Copyright (c) 2004 Alexander Djourik. All rights reserved.

FILE: Jon Lord - Boom of the Tingling Strings.wv
  Size: 291476006 Hash: F8A016EEBAC6A2E689C7D2856907D4D8 Accuracy: -m0
  Conclusion: MPEG 91%
  Signature: 4213F3B69ADAFDDC2C534F508B75B09D5E9EF1D9


Реставрация релиза: Pashketan
Детали торрента:
Название:Jon Lord - 2 Альбома (1982, 2008) [FLAC, WavPack|Lossless]<Progressive Rock, Hard Rock, Classical>
Дата добавления:21 Апр 2011 10:06:05
Размер:676 MB
Раздают:1
Качают:0
Форум:Hard Rock (Lossless)

All rights reserved © 2015-2019