TORRENTS45.XYZ

Скачать Эта весёлая планета (1973) DVDRip (Реставрация КП)


Эта весёлая планета (1973) DVDRip (Реставрация КП)
Кинокомпания: Мосфильм
Год выпуска: 1973
Жанр: Комедия, Мьюзикл, Фантастика

Описание фильма:
Музыкальная фантастическая комедия о том, как на Землю прилетели инопланетяне и попали на встречу Нового года.
Они уверены, что немедленно станут центром внимания, но, поскольку все в карнавальных костюмах, никакого ажиотажа их появление на вечеринке в Доме Культуры не вызывает. Они пытаются доказать свое внеземное происхождение, но им никто не верит. Один молодой астроном пытается довести до собравшихся это экстраординарное событие, но также безрезультатно, да и к тому же он глубоко заблуждается — он принял за пришельца землянина, одетого в костюм вечного двигателя.
Пришельцы лишены эмоций, но, проникнувшись духом «непонятного земного праздника» учатся чувствовать, плакать, любить…

Режиссер: Юрий Сааков, Юрий Цветков
Сценарий: Дмитрий Иванов, Юрий Сааков, Владимир Трифонов
Актеры: Савелий Крамаров, Леонид Куравлев, Александр Вокач, Виктор Сергачев, Екатерина Васильева, Лариса Барабанова, Наталья Крачковская, Владимир Носик, Игорь Кашинцев, Юрий Демин

Продолжительность: 01:31:04
Качество видео: DVDRip



Семпл: тут

Видеокодек: DivX 5
Битрейт видео: 1843 kbps avg
Размер кадра: 704x528 (4:3)
Аудиокодек: AC3 5.1
Битрейт аудио: 448.00 kbps avg CBR

Ссылки на альтернативные раздачи

MediaInfo

Эта весёлая планета (1973).avi
Формат : AVI
Формат/Информация : Audio Video Interleave
Размер файла : 1,46 Гбайт
Продолжительность : 1 ч. 31 м.
Общий поток : 2301 Кбит/сек
Программа кодирования : VirtualDubModRus 1.5.10.2 (build 2542/release)
Библиотека кодирования : VirtualDubMod build 2542/release

Видео
Идентификатор : 0
Формат : MPEG-4 Visual
Параметр BVOP формата : 1
Параметр QPel формата : Нет
Параметр GMC формата : Без точки перехода
Параметр матрицы формата : Default (H.263)
Режим смешивания : Сжатый битовый поток
Идентификатор кодека : DX50
Идентификатор кодека/Подсказка : DivX 5
Продолжительность : 1 ч. 31 м.
Битрейт : 1843 Кбит/сек
Ширина : 704 пикс.
Высота : 528 пикс.
Соотношение сторон : 4:3
Частота кадров : 25,000 кадр/сек
Цветовое пространство : YUV
Подвыборка цветности : 4:2:0
Битовая глубина : 8 бит
Тип развёртки : Прогрессивная
Метод сжатия : С потерями
Бит/(Пиксели*Кадры) : 0.198
Размер потока : 1,17 Гбайт (80%)
Библиотека кодирования : DivX 6.8.3-6.8.4 (UTC 2008-06-07)

Аудио
Идентификатор : 1
Формат : AC-3
Формат/Информация : Audio Coding 3
Расширение режима : CM (complete main)
Идентификатор кодека : 2000
Продолжительность : 1 ч. 31 м.
Вид битрейта : Постоянный
Битрейт : 448 Кбит/сек
Канал(ы) : 6 канала(ов)
Расположение каналов : Front: L C R, Side: L R, LFE
Частота : 48,0 КГц
Битовая глубина : 16 бит
Метод сжатия : С потерями
Размер потока : 292 Мбайт (19%)
Выравнивание : Соединение по промежуткам
Продолжительность промежутка : 40 мс. (1,00 видеокадр)
Время предзагрузки промежутка : 512 ms
Скриншоты:

Детали торрента:
Название:Эта весёлая планета (1973) DVDRip (Реставрация КП)
Дата добавления:11 Окт 2010 10:57:24
Размер:1,46 GB
Раздают:4
Качают:0
Форум:Отечественная Классика (HD*Rip/LQ, DVDRip, SATRip, VHSRip)

All rights reserved © 2015-2019