TORRENTS45.XYZ

Скачать Jon Lord with The Hoochie Coochie Men & Jimmy Barnes - Live at the Basement (2003) DVDRip


Jon Lord with The Hoochie Coochie Men & Jimmy Barnes - Live at the Basement (2003) DVDRip
Прoизводство:Thames TV / Thompson Music Inc/
Жанр: Концерт, Blues/Rock
Описание :
Запись концерта Jon Lord, The Hoochie Coochie Men, Jimmy Barnes, состоявшегося 7 февраля 2003 года.
Первый альбом легендарного клавишника Джона Лорда после ухода из Deep Purple. Лорд уверял, что хочет заниматься музыкой классической. Впрочем, музыка сыгранная на концерте, в каком-то смысле действительно классика - блюза и рока. Это по-настоящему хороший блюз-роковый концерт, сыгранный настоящей супергруппой. Так, среди сыгранных композиций - Strange Brew, Baby Please Don't Go, Who's Been Talking, Green Onions, и, естественно, Hoochie Coochie Man. Помимо них есть несколько новых песен, написанных участниками группы, и необычное прочтение When The Blind Man Cries, одной из самых красивых песен из репертуара Deep Purple. В коллектив, помимо Лорда, входят бас-гитарист Боб Дэйсли, гитарист Тим Гэйз и барабанщик Роб Гроссер.

Состав:
Jon Lord - клавишные
Jimmy Barnes (ex Cold Chisel) - вокал
The Hoochie Coochie Men:
Bob Daisley - бас
Tim Gaze - гитара, вокал
Rob Grosser - барабаны
Jim Conway - гармоника
Продолжительность: 02:00:08

Видео: Xvid, 704х528, 1582 kbps
Аудио1: АС3 5.1, 448 kbps
Аудио2: DTS 5.1, 775 kbps
Скриншоты:

Треклист

Треклист:
01. Introduction
02. Hideaway
03. Lonesome Traveller Blues
04. Blues with a Feeling
05. You Got Good Business
06. Green Onions
07. 24/7 Blues
08. Baby Please Don't Go
09. The Money Doesn't Matter
10. Strange Brew
11. Dallas
12. I Just Wanna Make Love To You
13. You Need Love
14. The Hoochie Coochie Man
15. New Old Lady Blues
16. Who's Been Talkin'
17. Six Strings Down
18. Dust My Broom
19. Back at the Chicken Shack
20. When a Blindman Cries
21. 12 Bar Blow Jam

MediaInfo

Код:

         Полное имя                               : K:\UpRG-Концерты\Jon_Lord-2003.avi
Формат                                   : AVI
Формат/Информация                        : Audio Video Interleave
Профиль формата                          : OpenDML
Размер файла                             : 2,35 Гбайт
Продолжительность                        : 2 ч. 0 м.
Общий поток                              : 2797 Кбит/сек
Программа кодирования                    : VirtualDubMod 1.5.4.1 (build 2178/release)
Библиотека кодирования                   : VirtualDubMod build 2178/release

Видео
Идентификатор                            : 0
Формат                                   : MPEG-4 Visual
Профиль формата                          : Advanced Simple@L5
Параметр BVOP формата                    : 1
Параметр QPel формата                    : Нет
Параметр GMC формата                     : Без точки перехода
Параметр матрицы формата                 : Выборочная
Идентификатор кодека                     : XVID
Идентификатор кодека/Подсказка           : XviD
Продолжительность                        : 2 ч. 0 м.
Битрейт                                  : 1582 Кбит/сек
Ширина                                   : 704 пикселя
Высота                                   : 528 пикселей
Соотношение сторон                       : 4:3
Частота кадров                           : 29,970 кадров/сек
Цветовое пространство                    : YUV
Субдискретизация насыщенности            : 4:2:0
Битовая глубина                          : 8 бит
Тип развёртки                            : Прогрессивная
Метод сжатия                             : С потерями
Бит/(Пиксели*Кадры)                      : 0.142
Размер потока                            : 1,33 Гбайт (57%)
Библиотека кодирования                   : XviD 1.2.1 (UTC 2008-12-04)

Аудио #1
Идентификатор                            : 1
Формат                                   : AC-3
Формат/Информация                        : Audio Coding 3
Расширение режима                        : CM (complete main)
Параметр Endianness формата              : Big
Идентификатор кодека                     : 2000
Продолжительность                        : 2 ч. 0 м.
Вид битрейта                             : Постоянный
Битрейт                                  : 448 Кбит/сек
Каналы                                   : 6 каналов
Расположение каналов                     : Front: L C R, Side: L R, LFE
Частота                                  : 48,0 КГц
Битовая глубина                          : 16 бит
Метод сжатия                             : С потерями
Размер потока                            : 385 Мбайт (16%)
Выравнивание                             : Разделение по промежуткам
Продолжительность промежутка             : 96  мс. (2,88 видеокадра)
Время предзагрузки промежутка            : 96  мс.
Язык                                     : English

Аудио #2
Идентификатор                            : 2
Формат                                   : DTS
Формат/Информация                        : Digital Theater Systems
Идентификатор кодека                     : 2001
Идентификатор кодека/Информация          : Digital Theater Systems
Продолжительность                        : 2 ч. 0 м.
Вид битрейта                             : Постоянный
Битрейт                                  : 755 Кбит/сек
Каналы                                   : 6 каналов
Расположение каналов                     : Front: L C R, Side: L R, LFE
Частота                                  : 48,0 КГц
Битовая глубина                          : 16 бит
Метод сжатия                             : С потерями
Размер потока                            : 648 Мбайт (27%)
Выравнивание                             : Разделение по промежуткам
Продолжительность промежутка             : 96  мс. (2,88 видеокадра)
Время предзагрузки промежутка            : 96  мс.
Язык                                     : English       
Реставрация sklad600
Детали торрента:
Название:Jon Lord with The Hoochie Coochie Men & Jimmy Barnes - Live at the Basement (2003) DVDRip
Дата добавления:30 Апр 2010 13:49:19
Размер:2,35 GB
Раздают:1
Качают:0
Форум:Концерты

All rights reserved © 2015-2019