TORRENTS45.XYZ

Скачать Die Verbannten Kinder Eva's - Дискография (4 альбома) (1995-2006) [FLAC|Lossless]<Darkwave, Neoclassical Darkwave, Dark Ambient>


Die Verbannten Kinder Eva's - Дискография (4 альбома) (1995-2006)


Год: 1995-2006
Жанр: Darkwave, Neoclassical Darkwave, Dark Ambient
Кодек: FLAC
Битрейт: Lossless
Тип битрейта: CBR
Тип рипа: Image+cue
Общая продолжительность: 03:59:20

1995 Die Verbannten Kinder Eva's:

Год: 1995
Жанр: Darkwave, Neoclassical Darkwave, Dark Ambient
Продолжительность: 01:07:29
Кодек: FLAC
Тип битрейта: CBR
Битрейт: 886

Трек лист:
01 - Einleitung
02 - The Serpent's Voice
03 - Darkened Skies
04 - Quod Olim Erat
05 - Beneath The Veil Of The Ocean
06 - Requiem
07 - May No Tears Stain This Holy Ground
08 - The Messenger
09 - Futile Belief
10 - Reflexion Beyond Boundaries
11 - Craving Dreams
12 - Shadowvale
13 - Withering Existence
14 - Das Letzte Kapitel

Отчёт Audiochecker:

AUDIOCHECKER v2.0 beta (build 457) - by Dester - opdester@freemail.hu
~~~~~~~~~~~~~~~~~~~~~~~~~~~~~~~~~~

Путь: ...\1995 - Die Verbannten Kinder Eva's

1 -=- Die Verbannten Kinder Eva's - 1995 - Die Verbannten Kinder Eva's.flac -=- CDDA (100%)

187052868

Отчёт EAC:

Exact Audio Copy V0.99 prebeta 4 from 23. January 2008

Отчёт EAC об извлечении, выполненном 6. июня 2008, 10:29

Die Verbannten Kinder Eva's / Die Verbannten Kinder Eva's

Дисковод: Optiarc DVD RW AD-7170S Adapter: 3 ID: 2

Режим чтения : Достоверность
Использование точного потока : Да
Отключение кэша аудио : Да
Использование указателей C2 : Нет

Коррекция смещения при чтении : 48
Способность читать области Lead-in и Lead-out : Нет
Заполнение пропущенных сэмплов тишиной : Да
Удаление блоков с тишиной в начале и конце : Нет
При вычислениях CRC использовались нулевые сэмплы : Да
Интерфейс : Встроенный Win32-интерфейс для Win NT/2000

Выходной формат : Внутренние WAV-операции
Формат сэмплов : 44.100 Гц; 16 бит; стерео

TOC извлечённого CD

Трек | Старт | Длительность | Начальный сектор | Конечный сектор
---------------------------------------------------------------------
1 | 0:00.00 | 4:21.40 | 0 | 19614
2 | 4:21.40 | 8:06.40 | 19615 | 56104
3 | 12:28.05 | 5:44.60 | 56105 | 81964
4 | 18:12.65 | 5:02.65 | 81965 | 104679
5 | 23:15.55 | 9:02.70 | 104680 | 145399
6 | 32:18.50 | 2:39.30 | 145400 | 157354
7 | 34:58.05 | 4:32.40 | 157355 | 177794
8 | 39:30.45 | 2:12.70 | 177795 | 187764
9 | 41:43.40 | 6:10.55 | 187765 | 215569
10 | 47:54.20 | 4:36.00 | 215570 | 236269
11 | 52:30.20 | 2:55.15 | 236270 | 249409
12 | 55:25.35 | 4:16.00 | 249410 | 268609
13 | 59:41.35 | 6:15.25 | 268610 | 296759
14 | 65:56.60 | 1:32.15 | 296760 | 303674

Характеристики диапазона извлечения и сообщения об ошибках

Выбранный диапазон

Имя файла D:\ftp\Music\Die Verbannten Kinder Eva's\Die Verbannten Kinder Eva's\Die Verbannten Kinder Eva's - Die Verbannten Kinder Eva's.wav

Пиковый уровень 98.6 %
Качество диапазона 100.0 %
CRC копии 90AFD645
Копирование... OK

Ошибок не произошло

Конец отчёта

1997 Come Heavy Sleep:

Год: 1997
Жанр: Darkwave, Neoclassical Darkwave, Dark Ambient
Продолжительность: 00:57:03
Кодек: FLAC
Тип битрейта: CBR
Битрейт: 823

Трек лист:
01 - The Beginning
02 - Come Heavy Sleep
03 - Sad Silent Home
04 - Misery
05 - Dim Atmosphere
06 - The Past
07 - Unreal Mystery
08 - House of Glass
09 - Waters of Wide Agony
10 - The End

Отчёт Audiochecker:

AUDIOCHECKER v2.0 beta (build 457) - by Dester - opdester@freemail.hu
~~~~~~~~~~~~~~~~~~~~~~~~~~~~~~~~~~

Путь: ...\1997 - Come Heavy Sleep

1 -=- Die Verbannten Kinder Evas - 1997 - Come Heavy Sleep.flac -=- CDDA (100%)

116021076

Отчёт EAC:

Exact Audio Copy V0.99 prebeta 4 from 23. January 2008

Отчёт EAC об извлечении, выполненном 6. июня 2008, 20:17

Die Verbannten Kinder Evas / Come Heavy Sleep

Дисковод: Optiarc DVD RW AD-7170S Adapter: 3 ID: 2

Режим чтения : Достоверность
Использование точного потока : Да
Отключение кэша аудио : Да
Использование указателей C2 : Нет

Коррекция смещения при чтении : 48
Способность читать области Lead-in и Lead-out : Нет
Заполнение пропущенных сэмплов тишиной : Да
Удаление блоков с тишиной в начале и конце : Нет
При вычислениях CRC использовались нулевые сэмплы : Да
Интерфейс : Встроенный Win32-интерфейс для Win NT/2000

Выходной формат : Внутренние WAV-операции
Формат сэмплов : 44.100 Гц; 16 бит; стерео

TOC извлечённого CD

Трек | Старт | Длительность | Начальный сектор | Конечный сектор
---------------------------------------------------------------------
1 | 0:00.00 | 4:15.30 | 0 | 19154
2 | 4:15.30 | 6:00.45 | 19155 | 46199
3 | 10:16.00 | 6:13.50 | 46200 | 74224
4 | 16:29.50 | 5:04.37 | 74225 | 97061
5 | 21:34.12 | 6:32.58 | 97062 | 126519
6 | 28:06.70 | 6:13.35 | 126520 | 154529
7 | 34:20.30 | 5:55.65 | 154530 | 181219
8 | 40:16.20 | 5:02.20 | 181220 | 203889
9 | 45:18.40 | 6:17.60 | 203890 | 232224
10 | 51:36.25 | 5:27.07 | 232225 | 256756

Характеристики диапазона извлечения и сообщения об ошибках

Выбранный диапазон

Имя файла D:\ftp\Music\Die Verbannten Kinder Eva's\Come Heavy Sleep\Die Verbannten Kinder Evas - Come Heavy Sleep.wav

Пиковый уровень 100.0 %
Качество диапазона 100.0 %
CRC копии 7BA17BE4
Копирование... OK

Ошибок не произошло

Конец отчёта

1999 In Darkness Let Me Dwell:

Год: 1999
Жанр: Darkwave, Neoclassical Darkwave, Dark Ambient
Продолжительность: 00:58:01
Кодек: FLAC
Тип битрейта: CBR
Битрейт: 838

Трек лист:
01 - Intro
02 - Brief Even As Bright
03 - On A Faded Violet
04 - Overpast
05 - Cease Sorrows Now
06 - In Darkness Let Me Dwell
07 - Shall I Strive?
08 - Arise From Dreams Of Thee
09 - From Silent Night

Отчёт Audiochecker:

AUDIOCHECKER v2.0 beta (build 457) - by Dester - opdester@freemail.hu
~~~~~~~~~~~~~~~~~~~~~~~~~~~~~~~~~~

Путь: ...\1999 - In Darkness Let Me Dwell

1 -=- Die Verbannten Kinder Evas - 1999 - In Darkness Let Me Dwell.flac -=- MPEG (95%)

3958036

Audition:

Отчёт EAC:

Exact Audio Copy V0.99 prebeta 4 from 23. January 2008

Отчёт EAC об извлечении, выполненном 6. июня 2008, 18:08

Die Verbannten Kinder Evas / In Darkness Let Me Dwell

Дисковод: Optiarc DVD RW AD-7170S Adapter: 3 ID: 2

Режим чтения : Достоверность
Использование точного потока : Да
Отключение кэша аудио : Да
Использование указателей C2 : Нет

Коррекция смещения при чтении : 48
Способность читать области Lead-in и Lead-out : Нет
Заполнение пропущенных сэмплов тишиной : Да
Удаление блоков с тишиной в начале и конце : Нет
При вычислениях CRC использовались нулевые сэмплы : Да
Интерфейс : Встроенный Win32-интерфейс для Win NT/2000

Выходной формат : Внутренние WAV-операции
Формат сэмплов : 44.100 Гц; 16 бит; стерео

TOC извлечённого CD

Трек | Старт | Длительность | Начальный сектор | Конечный сектор
---------------------------------------------------------------------
1 | 0:00.00 | 4:21.48 | 0 | 19622
2 | 4:21.48 | 7:04.36 | 19623 | 51458
3 | 11:26.09 | 6:56.33 | 51459 | 82691
4 | 18:22.42 | 6:09.14 | 82692 | 110380
5 | 24:31.56 | 6:59.19 | 110381 | 141824
6 | 31:31.00 | 7:01.56 | 141825 | 173455
7 | 38:32.56 | 5:58.43 | 173456 | 200348
8 | 44:31.24 | 6:12.34 | 200349 | 228282
9 | 50:43.58 | 7:18.09 | 228283 | 261141

Характеристики диапазона извлечения и сообщения об ошибках

Выбранный диапазон

Имя файла D:\ftp\Music\Die Verbannten Kinder Eva's\In Darkness Let Me Dwell\Die Verbannten Kinder Evas - In Darkness Let Me Dwell.wav

Пиковый уровень 100.0 %
Качество диапазона 100.0 %
CRC копии 2B5BDC7A
Копирование... OK

Ошибок не произошло

Конец отчёта

2006 Dusk And Void Became Alive:

Год: 2006
Жанр: Darkwave, Neoclassical Darkwave, Dark Ambient
Продолжительность: 00:56:46
Кодек: FLAC
Тип битрейта: CBR
Битрейт: 788

Трек лист:
01 - Dusk And Void Became Alive
02 - Mistrust
03 - Winter's Night
04 - Unquiet Thoughts
05 - Cease To Breathe
06 - Praise Blindness Eyes
07 - Virtue's Cloak
08 - Moon Muse
09 - Cartharsis

Отчёт Audiochecker:

AUDIOCHECKER v2.0 beta (build 457) - by Dester - opdester@freemail.hu
~~~~~~~~~~~~~~~~~~~~~~~~~~~~~~~~~~

Путь: ...\2006 - Dusk And Void Became Alive

1 -=- Die Verbannten Kinder Evas - 2006 - Dusk And Void Became Alive.flac -=- CDDA (100%)

106869492

Отчёт EAC:

EAC extraction logfile from 7. May 2008, 14:36 for CD
Die Verbannten Kinder Evas / Dusk And Void Became Alive

Used drive : _NEC DVD_RW ND-4571A Adapter: 1 ID: 0
Read mode : Secure with NO C2, accurate stream, disable cache
Read offset correction : 48
Overread into Lead-In and Lead-Out : No

Used output format : C:\Program Files\Exact Audio Copy\MAC.EXE (Monkey's Audio Lossless Encoder)
High Lossless Compression

Other options :
Fill up missing offset samples with silence : Yes
Delete leading and trailing silent blocks : No
Installed external ASPI interface

Range status and errors
Selected range
Filename D:\#for torrents.ru\Die Verbannten Kinder Evas - Dusk And Void Became Alive.wav

Peak level 100.0 %
Range quality 100.0 %
CRC 1908177A
Copy OK

No errors occured

End of status report
Детали торрента:
Название:Die Verbannten Kinder Eva's - Дискография (4 альбома) (1995-2006) [FLAC|Lossless]<Darkwave, Neoclassical Darkwave, Dark Ambient>
Дата добавления:08 Апр 2010 20:16:58
Размер:1,4 GB
Раздают:1
Качают:0
Форум:Other (Lossless)

All rights reserved © 2015-2019