TORRENTS45.XYZ

Скачать Оркестр МВД России / Отдельный Военный Показательный Оркестр Министерства Обороны Российской Федерации - Военные марши (2004-2005) [FLAC|Lossless]<Военные марши>


Оркестр МВД России / Отдельный Военный Показательный Оркестр Министерства Обороны Российской Федерации - Военные марши (2004-2005)


Год: 2004-2005
Жанр: Военные марши
Кодек: FLAC
Битрейт: Lossless
Тип битрейта: CBR
Тип рипа: Image+cue
Общая продолжительность: 01:50:55

2004 Военные марши (60-ти летию Победы посвящается):

Год: 2004
Жанр: Военные марши
Продолжительность: 00:32:06
Кодек: FLAC
Тип битрейта: CBR
Битрейт: 756

Трек лист:
01 - Е. Аксенов - Марш Лейб Гвардии Измайловского полка
02 - В. Халилов - Лефортовский марш
03 - А. Петров, Г. Пучков - Гусарский марш
04 - В. Агапкин, Л. Дунаев - Прощание славянки
05 - Б. Окуджава, С. Райхштейн - Нам нужна одна победа
06 - Т. Хренников, А. Серебренников - Марш артиллеристов
07 - В. Фомичев - Мы из Ельца
08 - В. Волков - Марш 9 мая
09 - С. Чернецкий - Марш танкистов
10 - С. Чернецкий - Марш гвардейцев-минометчиков
11 - С. Трофимов, Л. Дунаев - Тоска по Родине

Отчёт Audiochecker:

AUDIOCHECKER v2.0 beta (build 457) - by Dester - opdester@freemail.hu
~~~~~~~~~~~~~~~~~~~~~~~~~~~~~~~~~~

Путь: ...\2004 - Военные марши (60-ти летию Победы посвящается)

1 -=- 2004 - Военные марши (60-ти летию Победы посвящается).flac -=- CDDA (100%)

238518532

Отчёт EAC:

Отчёт EAC об извлечении, выполненном 5. мая 2008, 20:38 для диска:
Отдельный военный показательный оркестр Министерства обороны российской Федерации / Военные марши (60-ти летию Победы посвящается)

Дисковод: _NEC DV-5800D Adapter: 1 ID: 0
Режим чтения: Точный (C2: нет, Точный поток: да, Отключение кэша: да)
Коррекция смещения при чтении: 12
Экстрачтение областей Lead-in и Lead-out : Нет

Выходной формат: Внутренние WAV-операции
44.100 Гц; 16 бит; стерео

Другие параметры:
Заполнение пропущенных сэмплов тишиной : Да
Удаление блоков с тишиной в начале и конце : Нет
'Родной' Win32-интерфейс для Win NT/2000

Статус диапазона и ошибки
Выбранный диапазон
Имя файла G:\CDImage.wav

Пиковый уровень 98.3 %
Качество диапазона 99.9 %
CRC 11E2D780
Копирование... OK

Ошибок не произошло

Конец отчёта

2005 Служебно-строевой репертуар для обеспечения воинских ритуалов:

Год: 2005
Жанр: Военные марши
Продолжительность: 01:18:49
Кодек: FLAC
Тип битрейта: CBR
Битрейт: 818

Трек лист:
01 - А.Александров 'Государственный Гимн Российской Федерации'
02 - А.Александров 'Государственный Гимн Российской Федерации' (с колоколами)
03 - А.Александров 'Государственный Гимн Российской Федерации' (с пением)
04 - С.Чернецкий 'Юбилейный встречный марш'
05 - Н.Иванов-Радкеевич 'Гвардейский встречный марш'
06 - Д.Кадеев 'Встречный марш'
07 - Б.Диев 'Встречный президентский марш'
08 - 'Марш Преображенского полка' (старинный марш)
09 - Марш Печерского полка (старинный марш)
10 - Г.Холева 'Марш Батуринского полка'
11 - Марш Саратовского полка (старинный марш)
12 - Гренадер (старинный марш)
13 - Скобелев (старинный марш)
14 - Б.Беккер марш 'Радость победы'
15 - Н.Иванов-Радкеевич 'Победный марш'
16 - С.Чернецкий марш 'Салют Москвы'
17 - Ю.Хайт марш 'Все выше'
18 - В.Соловьев-Седой 'В путь'
19 - С.Чернецкий марш 'Будапешт'
20 - Д.Перцев 'Строевой марш'
21 - Н.Рунов 'Столичный марш'
22 - В.Халилов 'Молодежный марш'
23 - В.Агапкин 'Прощание славянки'
24 - Д.Тухманов 'День победы'
25 - С.Чернецкий марш 'Парад'
26 - Альбинони 'Адажио'

Отчёт Audiochecker:

AUDIOCHECKER v2.0 beta (build 457) - by Dester - opdester@freemail.hu
~~~~~~~~~~~~~~~~~~~~~~~~~~~~~~~~~~

Путь: ...\2005 - Военные Марши II

1 -=- 2005 - Служебно-строевой репертуар для обеспечения воинских ритуалов.flac -=- CDDA (100%)

182137284

Отчёт EAC:

Exact Audio Copy V0.99 prebeta 4 from 23. January 2008

Отчёт EAC об извлечении, выполненном 27. января 2009, 13:02

Оркестр МВД России / Служебно-строевой репертуар для обеспечения воинских ритуалов

Дисковод: ASUS CRW-5232AS Adapter: 1 ID: 1

Режим чтения : Достоверность
Использование точного потока : Да
Отключение кэша аудио : Да
Использование указателей C2 : Нет

Коррекция смещения при чтении : 6
Способность читать области Lead-in и Lead-out : Нет
Заполнение пропущенных сэмплов тишиной : Да
Удаление блоков с тишиной в начале и конце : Нет
При вычислениях CRC использовались нулевые сэмплы : Да
Интерфейс : Установленный внешний ASPI-интерфейс

Выходной формат : Внутренние WAV-операции
Формат сэмплов : 44.100 Гц; 16 бит; стерео

TOC извлечённого CD

Трек | Старт | Длительность | Начальный сектор | Конечный сектор
---------------------------------------------------------------------
1 | 0:00.00 | 1:14.34 | 0 | 5583
2 | 1:14.34 | 1:16.51 | 5584 | 11334
3 | 2:31.10 | 3:37.61 | 11335 | 27670
4 | 6:08.71 | 1:24.70 | 27671 | 34040
5 | 7:33.66 | 1:24.73 | 34041 | 40413
6 | 8:58.64 | 1:06.38 | 40414 | 45401
7 | 10:05.27 | 1:33.04 | 45402 | 52380
8 | 11:38.31 | 2:09.31 | 52381 | 62086
9 | 13:47.62 | 2:21.06 | 62087 | 72667
10 | 16:08.68 | 2:24.04 | 72668 | 83471
11 | 18:32.72 | 2:35.05 | 83472 | 95101
12 | 21:08.02 | 2:35.04 | 95102 | 106730
13 | 23:43.06 | 2:22.04 | 106731 | 117384
14 | 26:05.10 | 4:08.06 | 117385 | 135990
15 | 30:13.16 | 3:41.70 | 135991 | 152635
16 | 33:55.11 | 5:00.30 | 152636 | 175165
17 | 38:55.41 | 2:37.02 | 175166 | 186942
18 | 41:32.43 | 2:17.38 | 186943 | 197255
19 | 43:50.06 | 3:33.00 | 197256 | 213230
20 | 47:23.06 | 3:36.06 | 213231 | 229436
21 | 50:59.12 | 3:34.27 | 229437 | 245513
22 | 54:33.39 | 3:57.00 | 245514 | 263288
23 | 58:30.39 | 2:48.34 | 263289 | 275922
24 | 61:18.73 | 3:49.18 | 275923 | 293115
25 | 65:08.16 | 3:31.63 | 293116 | 309003
26 | 68:40.04 | 10:09.00 | 309004 | 354678

Характеристики диапазона извлечения и сообщения об ошибках

Выбранный диапазон

Имя файла C:\Documents and Settings\User\Мои документы\Downloads\Военные марши2\Оркестр МВД России - Служебно-строевой репертуар для обеспечения воинских ритуалов.wav

Пиковый уровень 100.0 %
Качество диапазона 100.0 %
CRC копии 2DD80A3C
Копирование... OK

Ошибок не произошло

Конец отчёта
Детали торрента:
Название:Оркестр МВД России / Отдельный Военный Показательный Оркестр Министерства Обороны Российской Федерации - Военные марши (2004-2005) [FLAC|Lossless]<Военные марши>
Дата добавления:27 Мар 2010 17:17:29
Размер:638 MB
Раздают:1
Качают:0
Форум:Other (Lossless)

All rights reserved © 2015-2019