TORRENTS45.XYZ

Скачать Услуга / Favor (2013) WEB-DL [H.264/1080p-LQ] [VO]


Услуга / Favor (2013) WEB-DL [H.264/1080p-LQ]«A friend helps you move. A good friend helps you move a body»
Производство: США / Conspicuous Pictures
Жанр: Триллер

Режиссер: Пол Осборн
Продюсер: Лесли Уиммер Осборн, Тиффани Дж. Шаттлворф, Пол Осборн
Актеры: Блэйн Уивер, Патрик Дэй, Джеффри Комбс, Кристина Роуз, Элисон Мартин, Шерил Николс, Розали Уорд, Лесли Уиммер Осборн, Эми Донеган, Мэтт Фендер

Описание:
Размеренная жизнь Кипа оказывается в опасности, когда в результате несчастного случая погибает его любовница. В отчаянии он обращается к другу детства Марвину, безработному неудачнику, который соглашается помочь ему избавиться от трупа и замести следы преступления. Это решение и приводит к событиям, которые оба друга не могли даже представить…



Релиз от: R.G. Goldenshara

Продолжительность: 01:42:34
Качество видео: WEB-DL (1080p-LQ)
Перевод: Одноголосый закадровый, любительский (datynet)
Субтитры: Английские

Видео: AVC/H.264, 1904x1064 (16:9), ~5071 kbps, 23.976 fps
Аудио #1: AC3, 2 ch, 44,1 kHz, 192 kbps - Русский
Аудио #2: AC3, 6 ch, 48 kHz, 384 kbps - Английский

Mediainfo:


General
Unique ID : 239396468599649836491751768943760433779 (0xB41A152ED1DA01D3BB9F8F311E4EE273)
Complete name : E:\Мои рипы\Услуга.2013.WEB-DL.1080p.VO.mkv
Format : Matroska
Format version : Version 4 / Version 2
File size : 4.13 GiB
Duration : 1h 42mn
Overall bit rate : 5 762 Kbps
Encoded date : UTC 2018-10-25 15:52:08
Writing application : mkvmerge v6.8.0 ('Theme for Great Cities') 32bit built on Mar 2 2014 21:27:07
Writing library : libebml v1.3.0 + libmatroska v1.4.1

Video
ID : 1
Format : AVC
Format/Info : Advanced Video Codec
Format profile : High@L4.0
Format settings, CABAC : Yes
Format settings, ReFrames : 4 frames
Codec ID : V_MPEG4/ISO/AVC
Duration : 1h 42mn
Bit rate : 5 071 Kbps
Width : 1 904 pixels
Height : 1 064 pixels
Display aspect ratio : 16:9
Frame rate mode : Constant
Frame rate : 23.976 fps
Color space : YUV
Chroma subsampling : 4:2:0
Bit depth : 8 bits
Scan type : Progressive
Bits/(Pixel*Frame) : 0.104
Stream size : 3.63 GiB (88%)
Language : English
Default : Yes
Forced : No
Color primaries : BT.709
Transfer characteristics : BT.709
Matrix coefficients : BT.709

Audio #1
ID : 2
Format : AC-3
Format/Info : Audio Coding 3
Mode extension : CM (complete main)
Format settings, Endianness : Big
Codec ID : A_AC3
Duration : 1h 42mn
Bit rate mode : Constant
Bit rate : 192 Kbps
Channel(s) : 2 channels
Channel positions : Front: L R
Sampling rate : 44.1 KHz
Bit depth : 16 bits
Compression mode : Lossy
Stream size : 141 MiB (3%)
Title : VO (datynet)
Language : Russian
Default : Yes
Forced : No

Audio #2
ID : 3
Format : AC-3
Format/Info : Audio Coding 3
Mode extension : CM (complete main)
Format settings, Endianness : Big
Codec ID : A_AC3
Duration : 1h 42mn
Bit rate mode : Constant
Bit rate : 384 Kbps
Channel(s) : 6 channels
Channel positions : Front: L C R, Side: L R, LFE
Sampling rate : 48.0 KHz
Bit depth : 16 bits
Compression mode : Lossy
Stream size : 282 MiB (7%)
Language : English
Default : No
Forced : No

Text
ID : 4
Format : UTF-8
Codec ID : S_TEXT/UTF8
Codec ID/Info : UTF-8 Plain Text
Language : English
Default : No
Forced : No

Menu
00:00:00.000 : en:I Need Your Help
00:03:16.000 : en:Her Name's Abby
00:08:35.000 : en:I Can Take Care of It
00:12:56.000 : en:Did She Have Any Pets?
00:18:32.000 : en:I Owe You So Big
00:21:11.000 : en:You Could Get Supermodels to Buy Donuts
00:25:31.000 : en:Oh, Hi Marvin
00:28:50.000 : en:Wakey Wakey There?
00:35:58.000 : en:Friends Have Lunch, Kip
00:40:54.000 : en:Marvin Came to See Me Today
00:44:21.000 : en:What's Her Deal?
00:49:19.000 : en:So This Is Marvin?
00:56:03.000 : en:I Kept Vanilla, Too
01:03:24.000 : en:Let's Hear It, New Guy
01:10:28.000 : en:Why Ask About Abby?
01:14:19.000 : en:Our Fates Are Intertwined
01:19:16.000 : en:You Need to Lose Something
01:26:45.000 : en:Like Nothing Ever Happened
01:29:56.000 : en:I'm Not Unreasonable
01:31:54.000 : en:I Have What You Want
01:34:38.000 : en:Fill in the Blanks for Me
01:40:16.000 : en:I Can Live With Anything/End Credits
Скриншоты:


Все одноименные релизы в Клубе

Смотреть Online

Детали торрента:
Название:Услуга / Favor (2013) WEB-DL [H.264/1080p-LQ] [VO]
Дата добавления:25 Окт 2018 19:44:14
Размер:4,13 GB
Раздают:2
Качают:0
Форум:Зарубежные Фильмы (HD*Rip/LQ, DVDRip, SATRip, VHSRip)

All rights reserved © 2015-2019