TORRENTS45.XYZ

Скачать Коррина, Коррина / Corrina, Corrina (1994) WEB-DLRip [H.264/720p-LQ]


Коррина, Коррина / Corrina, Corrina (1994) WEB-DLRip [H.264/720p-LQ]
Производство: США. New Line Cinema
Жанр: Комедия, Мелодрама

Режиссер: Джесси Нельсон
Актеры: Вупи Голдберг, Норин Хеннесси, Люси Уэбб, Эрика Йон, Тина Мажорино, Рэй Лиотта, Дон Амичи, Ларри Миллер, Джоан Кьюсак, Джуни Эллис

Описание:
История о молодом мужчине, который после внезапной смерти жены должен самостоятельно воспитывать свою маленькую дочь. Та же замыкается в своем мире, не желая ни с кем разговаривать. Отец в отчаянии, но гнетущая атмосфера, царящая в доме, мгновенно рассеивается с приходом новой чернокожей домработницы Коррины: немного грубоватый юмор, слегка назидательная интонация. Три очень разных человека пытаются создать новую семью, свободную от равнодушия и эгоизма.


Рейтинг MPAA: PG (рекомендуется присутствие родителей)

Продолжительность: 01:55:34
Качество видео: WEB-DLRip
Перевод: Многоголосый закадровый, авторский
Субтитры: Английские

Видео: AVC/H.264, 1280x704, ~3100 Kbps
Аудио#1: AC3, 2 ch, 192 Kbps | Русский – MVO (НТВ)
Аудио#2: AC3, 2 ch, 192 Kbps | Русский – AVO (Василий Горчаков)
Аудио#3: AAC, 2 ch, 128 Kbps | Английский – оригинал

Mediainfo:


Общее
Уникальный идентификатор : 234693357314768411647441733353620569505 (0xB0904BE4CF9CBBABAD97C8D2549AFDA1)
Полное имя : F:\Вупи Голдберг\Коррина, Коррина\Коррина, Коррина. 1994.mkv
Формат : Matroska
Версия формата : Version 4 / Version 2
Размер файла : 2,92 Гбайт
Продолжительность : 1 ч. 55 м.
Общий поток : 3612 Кбит/сек
Название фильма : Release for Topmost
Дата кодирования : UTC 2018-10-18 01:33:00
Программа кодирования : mkvmerge v6.2.0 ('Promised Land') built on Apr 28 2013 12:22:01
Библиотека кодирования : libebml v1.3.0 + libmatroska v1.4.0
Attachment : Yes

Видео
Идентификатор : 1
Формат : AVC
Формат/Информация : Advanced Video Codec
Профиль формата : High@L4.1
Параметр CABAC формата : Да
Параметр ReFrames формата : 9 кадров
Идентификатор кодека : V_MPEG4/ISO/AVC
Продолжительность : 1 ч. 55 м.
Номинальный битрейт : 3100 Кбит/сек
Ширина : 1280 пикселей
Высота : 704 пикселя
Соотношение сторон : 16:9
Режим частоты кадров : Постоянный
Частота кадров : 23,976 кадра/сек
Цветовое пространство : YUV
Субдискретизация насыщенности : 4:2:0
Битовая глубина : 8 бит
Тип развёртки : Прогрессивная
Бит/(Пиксели*Кадры) : 0.143
Заголовок : Коррина, Коррина. 1994 (Release for Topmost)
Библиотека кодирования : x264 core 146 r2538 121396c
Настройки программы : cabac=1 / ref=9 / deblock=1:-3:-3 / analyse=0x3:0x113 / me=umh / subme=11 / psy=1 / psy_rd=1.00:0.15 / mixed_ref=1 / me_range=32 / chroma_me=1 / trellis=2 / 8x8dct=1 / cqm=0 / deadzone=21,11 / fast_pskip=0 / chroma_qp_offset=-3 / threads=12 / lookahead_threads=2 / sliced_threads=0 / nr=0 / decimate=0 / interlaced=0 / bluray_compat=0 / constrained_intra=0 / bframes=8 / b_pyramid=2 / b_adapt=2 / b_bias=0 / direct=3 / weightb=1 / open_gop=0 / weightp=2 / keyint=240 / keyint_min=23 / scenecut=40 / intra_refresh=0 / rc_lookahead=40 / rc=2pass / mbtree=1 / bitrate=3100 / ratetol=1.0 / qcomp=0.60 / qpmin=0 / qpmax=69 / qpstep=4 / cplxblur=20.0 / qblur=0.5 / ip_ratio=1.40 / aq=1:0.90
Язык : English
Default : Да
Forced : Нет

Аудио #1
Идентификатор : 2
Формат : AC-3
Формат/Информация : Audio Coding 3
Расширение режима : CM (complete main)
Параметр Endianness формата : Big
Идентификатор кодека : A_AC3
Продолжительность : 1 ч. 55 м.
Вид битрейта : Постоянный
Битрейт : 192 Кбит/сек
Каналы : 2 канала
Расположение каналов : Front: L R
Частота : 48,0 КГц
Битовая глубина : 16 бит
Метод сжатия : С потерями
Размер потока : 159 Мбайт (5%)
Заголовок : НТВ
Язык : Russian
Default : Да
Forced : Нет

Аудио #2
Идентификатор : 3
Формат : AC-3
Формат/Информация : Audio Coding 3
Расширение режима : CM (complete main)
Параметр Endianness формата : Big
Идентификатор кодека : A_AC3
Продолжительность : 1 ч. 55 м.
Вид битрейта : Постоянный
Битрейт : 192 Кбит/сек
Каналы : 2 канала
Расположение каналов : Front: L R
Частота : 48,0 КГц
Битовая глубина : 16 бит
Метод сжатия : С потерями
Размер потока : 159 Мбайт (5%)
Заголовок : Василий Горчаков
Язык : Russian
Default : Нет
Forced : Нет

Аудио #3
Идентификатор : 4
Формат : AAC
Формат/Информация : Advanced Audio Codec
Профиль формата : LC
Идентификатор кодека : A_AAC
Продолжительность : 1 ч. 55 м.
Каналы : 2 канала
Расположение каналов : Front: L R
Частота : 48,0 КГц
Метод сжатия : С потерями
Язык : English
Default : Нет
Forced : Нет

Текст
Идентификатор : 5
Формат : UTF-8
Идентификатор кодека : S_TEXT/UTF8
Идентификатор кодека/Информация : UTF-8 Plain Text
Язык : English
Default : Нет
Forced : Нет

Меню
00:00:00.000 : :01. Main Title
00:05:46.767 : :02. The Interviews
00:07:37.767 : :03. Life with Jonesy
00:10:53.767 : :04. Enter Corrina Washington
00:15:11.767 : :05. Communicating with Molly
00:21:52.768 : :06. Winds of Change; Queen for a Day
00:30:37.268 : :07. Breaking Through
00:34:04.769 : :08. Be Our Guest
00:38:14.769 : :09. Corrina's World
00:40:34.769 : :10. Introductions
00:44:48.769 : :11. What Corrina Said
00:47:17.269 : :12. First Day of School
00:54:01.770 : :13. Bonding
00:57:27.270 : :14. Lounging Around the Mansion
01:01:47.770 : :15. Almost Like Family
01:04:44.270 : :16. Puddin' It Together
01:07:46.271 : :17. Happy Birthday, Molly
01:09:55.771 : :18. Corrina's Little Helper
01:17:37.771 : :19. Through the Eyes of a Child
01:19:38.771 : :20. Four's a Crowd
01:22:08.771 : :21. Passion's Flame
01:27:33.272 : :22. Through the Eyes of the World
01:34:37.272 : :23. Two by Moonlight
01:38:43.272 : :24. Manny Finds Out
01:43:56.773 : :25. Reconciliation
01:49:39.240 : :26. End Credits
Скриншоты:


Все одноименные релизы в Клубе

Смотреть Online

Детали торрента:
Название:Коррина, Коррина / Corrina, Corrina (1994) WEB-DLRip [H.264/720p-LQ]
Дата добавления:19 Окт 2018 17:51:01
Размер:2,92 GB
Раздают:2
Качают:1
Форум:Зарубежные Фильмы (HD*Rip/LQ, DVDRip, SATRip, VHSRip)

All rights reserved © 2015-2019