TORRENTS45.XYZ

Скачать Сквозь снег / Snowpiercer (2013) BDRip [H.264/1080p-LQ] [AVO]


Сквозь снег / Snowpiercer (2013) BDRip [H.264/1080p-LQ][AVO]
Производство: Южная Корея, США, Франция, Чехия, CJ Entertainment, Moho Films, Opus Pictures, SnowPiercer, Stillking Films
Жанр: Фантастика, Боевик, Драма

Режиссер: Чжун Хо Пон
Актеры: Крис Эванс, Кан Хо Сон, Тильда Суинтон, Джейми Белл, Октавия Спенсер, Юэн Бремнер, Элисон Пилл, А Сон Ко, Эд Харрис, Джон Хёрт

Описание:
Земля. Недалекое будущее. Семнадцать лет назад на планете произошла техногенная катастрофа. Там, где раньше росли леса и цвели сады, теперь лежат снег и лед. Жизнь сохранилась лишь в гигантском поезде, без остановки мчащемся по трансевразийской магистрали. В первых вагонах состава живет правящая элита, во множестве последних - простые люди. Жизнь в хвосте поезда напоминает концлагерь - болезни, нищета, беспредел надсмотрщиков. Но именно здесь из среды униженных и оскорбленных восстает человек, способный восстановить справедливость. Однако у каждой благородной идеи есть своя темная сторона, и любая революция пожирает своих детей.



Релиз от: lexx256 ®

Продолжительность: 02:05:54
Качество видео: BDRip
Перевод: Авторский, Одноголосый
Субтитры: отсутствуют

Видео: AVC/H.264, 1920x1036, ~9865 Kbps
Аудио:1 AC3, 2 ch, 448 Kbps - Авторский (Андрей Гаврилов)
Аудио:2 DTS, 6 ch, 1509 Kbps - Авторский (Андрей Дольский)
Аудио:3 DTS, 6 ch, 1509 Kbps - Авторский (Дмитрий Есарев)

Mediainfo:


Complete name : Сквозь снег-2013 (BDRip 1080p By lexx256).mkv
Format : Matroska
Format version : Version 4 / Version 2
File size : 11.7 GiB
Duration : 2 h 5 min
Overall bit rate : 13.3 Mb/s
Encoded date : UTC 2018-10-18 14:53:42
Writing application : mkvmerge v27.0.0 ('Metropolis') 64-bit
Writing library : libebml v1.3.6 + libmatroska v1.4.9
Cover : Yes
Attachments : cover.jpg

Video
ID : 1
Format : AVC
Format/Info : Advanced Video Codec
Format profile : High@L4.1
Format settings : CABAC / 4 Ref Frames
Format settings, CABAC : Yes
Format settings, ReFrames : 4 frames
Codec ID : V_MPEG4/ISO/AVC
Duration : 2 h 5 min
Bit rate : 9 865 kb/s
Width : 1 920 pixels
Height : 1 036 pixels
Display aspect ratio : 1.85:1
Frame rate mode : Constant
Frame rate : 23.976 FPS
Color space : YUV
Chroma subsampling : 4:2:0
Bit depth : 8 bits
Scan type : Progressive
Bits/(Pixel*Frame) : 0.207
Stream size : 8.67 GiB (74%)
Title : Snowpiercer.2013.BDRip.1080p.CHD
Writing library : x264 core 138 r2356 a1d3d17
Encoding settings : cabac=1 / ref=4 / deblock=1:-3:-3 / analyse=0x3:0x113 / me=umh / subme=10 / psy=1 / psy_rd=1.00:0.05 / mixed_ref=1 / me_range=32 / chroma_me=1 / trellis=2 / 8x8dct=1 / cqm=0 / deadzone=21,11 / fast_pskip=0 / chroma_qp_offset=-2 / threads=18 / lookahead_threads=1 / sliced_threads=0 / nr=0 / decimate=1 / interlaced=0 / bluray_compat=0 / constrained_intra=0 / bframes=6 / b_pyramid=2 / b_adapt=2 / b_bias=0 / direct=3 / weightb=1 / open_gop=0 / weightp=2 / keyint=250 / keyint_min=23 / scenecut=40 / intra_refresh=0 / rc=2pass / mbtree=0 / bitrate=9865 / ratetol=1.0 / qcomp=0.70 / qpmin=0 / qpmax=69 / qpstep=4 / cplxblur=20.0 / qblur=0.5 / ip_ratio=1.40 / pb_ratio=1.30 / aq=2:0.90
Language : English
Default : Yes
Forced : No

Audio #1
ID : 2
Format : AC-3
Format/Info : Audio Coding 3
Codec ID : A_AC3
Duration : 2 h 5 min
Bit rate mode : Constant
Bit rate : 448 kb/s
Channel(s) : 6 channels
Channel positions : Front: L C R, Side: L R, LFE
Sampling rate : 48.0 kHz
Frame rate : 31.250 FPS (1536 SPF)
Bit depth : 16 bits
Compression mode : Lossy
Stream size : 403 MiB (3%)
Title : Авторский (одноголосый закадровый) Андрей Гаврилов
Language : Russian
Service kind : Complete Main
Default : Yes
Forced : No

Audio #2
ID : 3
Format : DTS
Format/Info : Digital Theater Systems
Codec ID : A_DTS
Duration : 2 h 5 min
Bit rate mode : Constant
Bit rate : 1 509 kb/s
Channel(s) : 6 channels
Channel positions : Front: L C R, Side: L R, LFE
Sampling rate : 48.0 kHz
Frame rate : 93.750 FPS (512 SPF)
Bit depth : 24 bits
Compression mode : Lossy
Stream size : 1.33 GiB (11%)
Title : Авторский (одноголосый закадровый) Андрей Дольский
Language : Russian
Default : No
Forced : No

Audio #3
ID : 4
Format : DTS
Format/Info : Digital Theater Systems
Codec ID : A_DTS
Duration : 2 h 5 min
Bit rate mode : Constant
Bit rate : 1 509 kb/s
Channel(s) : 6 channels
Channel positions : Front: L C R, Side: L R, LFE
Sampling rate : 48.0 kHz
Frame rate : 93.750 FPS (512 SPF)
Bit depth : 24 bits
Compression mode : Lossy
Stream size : 1.33 GiB (11%)
Title : Авторский (одноголосый закадровый) Дмитрий Есарев
Language : Russian
Default : No
Forced : No

Menu
00:00:00.000 : en:Chapter 1
00:08:34.931 : en:Chapter 2
00:21:25.534 : en:Chapter 3
00:29:13.877 : en:Chapter 4
00:39:08.512 : en:Chapter 5
00:47:23.549 : en:Chapter 6
00:56:42.565 : en:Chapter 7
01:06:52.633 : en:Chapter 8
01:15:16.553 : en:Chapter 9
01:23:46.604 : en:Chapter 10
01:36:24.111 : en:Chapter 11
01:52:12.726 : en:Chapter 12
02:05:52.711 : en:Chapter 13
Скриншоты:


Все одноименные релизы в Клубе

Смотреть Online

Детали торрента:
Название:Сквозь снег / Snowpiercer (2013) BDRip [H.264/1080p-LQ] [AVO]
Дата добавления:18 Окт 2018 18:56:47
Размер:11,7 GB
Раздают:4
Качают:0
Форум:Зарубежные Фильмы (HD*Rip/LQ, DVDRip, SATRip, VHSRip)

All rights reserved © 2015-2019