TORRENTS45.XYZ

Скачать Шлюха / Whore (1991) WEBRip


Шлюха / Whore (1991) WEBRip «If You're Afraid to Say It... Just See It»
Производство: США, Великобритания / Cheap Date,Trimark Pictures
Жанр: Драма

Режиссер: Кен Рассел
Продюсер: Дэн Айрлэнд, Роналдо Васконселлос, Марк Эмин, ...
Актеры: Тереза Расселл, Бенжамин Мутон, Антонио Фаргас, Элизабет Мохэд, Дэниэл Куинн, Санджай Чандани, Джейсон Сосьер, Майкл Крэбтри, Джеред Барклай, Даг МакХью ...

Описание:
Лиз молода и красива, цинична и рассудительна, напориста и боязлива. Секс ее бизнес и она в нем знает толк. Соблазнительные движения, которые возбуждают мужчин, слова, которые они хотят слышать.
Да, она готова выполнить любую просьбу своего клиента, потому, что именно за это ей и платят. Если, конечно, платят…


Возраст: 18+ (зрителям, достигшим 18 лет. запрещено для детей)
Рейтинг MPAA: R (лицам до 17 лет обязательно присутствие взрослого)
Дата выхода DVD: 7 марта 2007, «Neoclassica», ...

Релиз от: torrents45.xyz />Продолжительность: 01:25:20
Качество видео: WEBRip
Перевод: Профессиональный (многоголосый, закадровый), Профессиональный (двухголосый, закадровый), Авторский (одноголосый, закадровый)
Субтитры: Русские, английские (отдельным файлом)

Видео: XviD, 720x400 (16:9), 23.976 fps, 1 675 Kbps
Аудио #1: AC3, 2 ch, 192 Kbps | Русский (DVO-Neoclassica)
Аудио #2: AC3, 2 ch, 192 Kbps | Русский (MVO-Екатеринбург Арт)
Аудио #3: AC3, 2 ch, 192 Kbps | Русский (AVO-А. Гаврилов)
Аудио #4: AC3, 2 ch, 192 Kbps | Английский (Оригинал)

Mediainfo:

General
Complete name : Whore.1991.WEBRip.XviD.torrents45.xyzi
Format : AVI
Format/Info : Audio Video Interleave
File size : 1.47 GiB
Duration : 1 h 25 min
Overall bit rate : 2 459 kb/s

Video
ID : 0
Format : MPEG-4 Visual
Format profile : Advanced Simple@L5
Format settings : BVOP2
Format settings, BVOP : 2
Format settings, QPel : No
Format settings, GMC : No warppoints
Format settings, Matrix : Default (MPEG)
Codec ID : XVID
Codec ID/Hint : XviD
Duration : 1 h 25 min
Bit rate : 1 675 kb/s
Width : 720 pixels
Height : 400 pixels
Display aspect ratio : 16:9
Frame rate : 23.976 (24000/1001) FPS
Color space : YUV
Chroma subsampling : 4:2:0
Bit depth : 8 bits
Scan type : Progressive
Compression mode : Lossy
Bits/(Pixel*Frame) : 0.243
Stream size : 1 022 MiB (68%)
Writing library : XviD 67

Audio #1
ID : 1
Format : AC-3
Format/Info : Audio Coding 3
Commercial name : Dolby Digital
Codec ID : 2000
Duration : 1 h 25 min
Bit rate mode : Constant
Bit rate : 192 kb/s
Channel(s) : 2 channels
Channel layout : L R
Sampling rate : 48.0 kHz
Frame rate : 31.250 FPS (1536 SPF)
Bit depth : 16 bits
Compression mode : Lossy
Stream size : 117 MiB (8%)
Alignment : Aligned on interleaves
Interleave, duration : 64 ms (1.53 video frames)
Interleave, preload duratio : 192 ms
Title : DVO (Neoclassica)
Service kind : Complete Main

Audio #2
ID : 2
Format : AC-3
Format/Info : Audio Coding 3
Commercial name : Dolby Digital
Codec ID : 2000
Duration : 1 h 25 min
Bit rate mode : Constant
Bit rate : 192 kb/s
Channel(s) : 2 channels
Channel layout : L R
Sampling rate : 48.0 kHz
Frame rate : 31.250 FPS (1536 SPF)
Bit depth : 16 bits
Compression mode : Lossy
Stream size : 117 MiB (8%)
Alignment : Aligned on interleaves
Interleave, duration : 64 ms (1.53 video frames)
Interleave, preload duratio : 192 ms
Title : MVO (Екатеринбург Арт)
Service kind : Complete Main

Audio #3
ID : 3
Format : AC-3
Format/Info : Audio Coding 3
Commercial name : Dolby Digital
Codec ID : 2000
Duration : 1 h 25 min
Bit rate mode : Constant
Bit rate : 192 kb/s
Channel(s) : 2 channels
Channel layout : L R
Sampling rate : 48.0 kHz
Frame rate : 31.250 FPS (1536 SPF)
Bit depth : 16 bits
Compression mode : Lossy
Stream size : 117 MiB (8%)
Alignment : Aligned on interleaves
Interleave, duration : 64 ms (1.53 video frames)
Interleave, preload duratio : 192 ms
Title : AVO (Андрей Гаврилов)
Service kind : Complete Main

Audio #4
ID : 4
Format : AC-3
Format/Info : Audio Coding 3
Commercial name : Dolby Digital
Codec ID : 2000
Duration : 1 h 25 min
Bit rate mode : Constant
Bit rate : 192 kb/s
Channel(s) : 2 channels
Channel layout : L R
Sampling rate : 48.0 kHz
Frame rate : 31.250 FPS (1536 SPF)
Bit depth : 16 bits
Compression mode : Lossy
Stream size : 117 MiB (8%)
Alignment : Aligned on interleaves
Interleave, duration : 64 ms (1.53 video frames)
Interleave, preload duratio : 192 ms
Title : Оригинал
Service kind : Complete Main

...из книги «3500 кинорецензий»

Сергей Кудрявцев
Эстетская социальная драма

Лента с таким скандальным названием, разжигающим пыл воображения, особенно у мужской части аудитории, конечно, многих (или почти всех) разочарует, поскольку не суждено сбыться ни ожиданиям любителей острых пикантных зрелищ, ни надеждам поклонников визуальных причуд Кена Рассела. Картину «Шлюха», которую сам режиссёр называл своим ответом на популярную романтическую комедию «Красотка», можно уподобить социологическому исследованию на тему проституции в современном обществе.
Фильм основан на пьесе Дэвида Хайнса, который, в свою очередь, будучи лондонским таксистом, просто записал разные рассказы из жизни и «профессиональной деятельности» пассажирок-проституток, составив своеобразную мозаику или же моментальный портрет представительниц «древнейшей профессии». Рассел словно нарочно отказывается от собственных навязчивых «кинематографических бредней», буквально в качестве репортажа снимает монолог калифорнийской проститутки Лиз, обращённый прямо в камеру, непосредственно к зрителям, как если бы героиня хотела исповедаться, обнажить свою душу, посвятить не в святая святых, а в «аморальное аморального» различных человеческих страстей и маний.

Действительно, к такому трудно привыкнуть обожателям красивой, умеренной или вообще жёсткой эротики, гурманам «эстетской безвкусицы» прежних работ этого мастера кино. Что-то необъяснимо раздражает, путает все наши предположения, смущает разум и, в первую очередь, чувства, мешая возбудиться или, напротив, сострадать передрягам «бедной Лизы» из Америки. Большинство критиков пожелали увидеть в «Шлюхе» лишь неудачную мелодраму о тяжком труде «работниц чувственного фронта», которых эксплуатируют сутенёры, преследуют полицейские, подвергают унижениям неуравновешенные клиенты, презирают добропорядочные граждане, сами не отказывающиеся при случае предаться краткосрочному разврату.

Но если взглянуть глубже, то можно найти точки соприкосновения с другой американской картиной английского постановщика — «Преступления по страсти» (1984), более известной под названием «Голубая китаянка». Кен Рассел не преминул даже показать афишу кинотеатра, где демонстрируется этот фильм. Сходство двух работ — не только по тематике. При всей внешней непохожести их роднит провокационная, мистификаторская сущность, тотальный розыгрыш автора, который посмеивается над буквальными толкователями, воспринимающими всё всерьёз, на полную веру, не чувствуя скрытого подвоха.

В «Шлюхе» Рассел явно издевается над лентами в духе «синема-верите», которые пытаются как бы сконструировать «идеально типичную» историю городской проститутки. Режиссёр предлагает нам рассказ проститутки «от первого лица» — но следует ли нам целиком доверяться тому, что она поведала с экрана? Не является ли всё это очередной легендой, придуманной только для того, чтобы разжалобить чувствительных зрителей? Не подыгрывает ли проститутка, стремясь подтвердить наши досужие представления об её ремесле? Не навязан ли тут миф в некоем обличье социологического исследования?

Истина ускользает, исчезает, подобно героине, во тьме городского тоннеля. Если же вдуматься, Кен Рассел сочинил ещё одну «безумную биографию», пофантазировал о фактах вроде бы реальной судьбы, но, вопреки себе и будто назло хулителям и ценителям его формальных изысков, разыграл более объективированное действо, выдал всё за документальные зарисовки с натуры, фотографический снимок реальности. Но не верьте! Не поддавайтесь на провокацию!

Любопытно, что наши кинокритики (вероятно, и многие зрители) неожиданно «купились», по собственному невежеству, на одинаковую фамилию постановщика и исполнительницы главной роли. Одни строили домыслы, что и у них, на «загнивающем Западе», режиссёры снимают только своих жён. Другие предположили, что Тереза Рассел является дочерью. Третьи несмело убеждали, что родства между этими Расселами нет вообще. Но достаточно было бы знать, что англичанин Кен Рассел и американка Тереза Рассел впервые встретились на съёмочной площадке, а актриса получила известность по иным провокационным ролям в фильмах своего мужа, тоже англичанина Николаса Роуга.

1991
Скриншоты:

Дополнительные скриншоты:




Все одноименные релизы в Клубе

Смотреть Online

Детали торрента:
Название:Шлюха / Whore (1991) WEBRip
Дата добавления:16 Окт 2018 12:50:10
Размер:1,47 GB
Раздают:6
Качают:0
Форум:Зарубежные Фильмы (HD*Rip/LQ, DVDRip, SATRip, VHSRip)

All rights reserved © 2015-2019