TORRENTS45.XYZ

Скачать Темный рыцарь / The Dark Knight (2008) BDRip [H.265/1080p-LQ] [10-bit] [IMAX]


Темный рыцарь / The Dark Knight (2008) BDRip [H.265/1080p-LQ] [10-bit] [IMAX]
Производство: США \ Warner Bros. Pictures, DC Comics, Legendary Pictures
Жанр: Фантастика, Боевик, Триллер, Криминал

Режиссер: Кристофер Нолан
Актеры: Кристиан Бэйл, Хит Леджер, Аарон Экхарт, Майкл Кейн, Мэгги Джилленхол, Гари Олдман, Морган Фриман, Моника Карнен, Рон Дин, Киллиан Мёрфи

Описание:
Бэтмен поднимает ставки в войне с криминалом. С помощью лейтенанта Джима Гордона и прокурора Харви Дента он намерен очистить улицы от преступности, отравляющей город. Сотрудничество оказывается эффективным, но скоро они обнаружат себя посреди хаоса, развязанного восходящим криминальным гением, известным испуганным горожанам под именем Джокер.


Возраст: 12+ (зрителям, достигшим 12 лет)
Рейтинг MPAA: PG-13 (детям до 13 лет просмотр нежелателен)

Релиз от: M@kSIMus

Продолжительность: 02:32:13
Качество видео: BDRip
Перевод: Дублированный (Лицензия)
Субтитры: Русские (полные)

Видео: HEVC/H.265, 1920x1080, ~5787 Kbps
Аудио: AC3, 6 ch, 448 Kbps | Русский
Аудио: AC3, 6 ch, 448 Kbps | Английский

Mediainfo:


Общее
Уникальный идентификатор : 319553923902938368752078247867609876570 (0xF067D8DAD4FC26E91FF5D8993711885A)
Полное имя : E:\Фильмы\Batman\Темный рыцарь (2008) [IMAX] BDRip 1080p [HEVC] 10 bit.mkv
Формат : Matroska
Версия формата : Version 4
Размер файла : 7,11 Гбайт
Продолжительность : 2 ч. 32 м.
Общий поток : 6685 Кбит/сек
Название фильма : Rip_by_M@kSIMus
Дата кодирования : UTC 2018-10-05 06:56:03
Программа кодирования : mkvmerge v19.0.0 ('Brave Captain') 64-bit
Библиотека кодирования : libebml v1.3.5 + libmatroska v1.4.8
Обложка : Yes
Attachments : cover.jpg

Видео
Идентификатор : 1
Формат : HEVC
Формат/Информация : High Efficiency Video Coding
Профиль формата : Main 10@L4.1@High
Идентификатор кодека : V_MPEGH/ISO/HEVC
Продолжительность : 2 ч. 32 м.
Битрейт : 5787 Кбит/сек
Ширина : 1920 пикселей
Высота : 1080 пикселей
Соотношение сторон : 16:9
Режим частоты кадров : Постоянный
Частота кадров : 23,976 (24000/1001) кадра/сек
Цветовое пространство : YUV
Субдискретизация насыщенности : 4:2:0
Битовая глубина : 10 бит
Бит/(Пиксели*Кадры) : 0.116
Размер потока : 6,15 Гбайт (87%)
Библиотека кодирования : x265 2.8+19-bcdc610cf5f0:[Windows][GCC 7.3.0][64 bit] 10bit
Настройки программы : cpuid=1049583 / frame-threads=5 / numa-pools=4 / wpp / no-pmode / no-pme / no-psnr / no-ssim / log-level=3 / input-csp=1 / input-res=1920x1080 / interlace=0 / total-frames=0 / level-idc=41 / high-tier=1 / uhd-bd=0 / ref=5 / allow-non-conformance / no-repeat-headers / annexb / no-aud / no-hrd / info / hash=0 / no-temporal-layers / open-gop / min-keyint=24 / keyint=240 / gop-lookahead=0 / bframes=8 / b-adapt=2 / b-pyramid / bframe-bias=0 / rc-lookahead=40 / lookahead-slices=6 / scenecut=40 / radl=0 / no-intra-refresh / ctu=64 / min-cu-size=8 / no-rect / no-amp / max-tu-size=32 / tu-inter-depth=1 / tu-intra-depth=1 / limit-tu=0 / rdoq-level=0 / dynamic-rd=0.00 / no-ssim-rd / signhide / no-tskip / nr-intra=0 / nr-inter=0 / no-constrained-intra / strong-intra-smoothing / max-merge=2 / limit-refs=3 / no-limit-modes / me=3 / subme=7 / merange=57 / temporal-mvp / weightp / no-weightb / no-analyze-src-pics / deblock=-3:-3 / no-sao / no-sao-non-deblock / rd=3 / no-early-skip / rskip / no-fast-intra / no-tskip-fast / no-cu-lossless / no-b-intra / no-splitrd-skip / rdpenalty=0 / psy-rd=2.00 / psy-rdoq=0.00 / no-rd-refine / no-lossless / cbqpoffs=0 / crqpoffs=0 / rc=crf / crf=20.0 / qcomp=0.75 / qpstep=4 / stats-write=0 / stats-read=0 / vbv-maxrate=50000 / vbv-bufsize=50000 / vbv-init=0.9 / crf-max=0.0 / crf-min=0.0 / ipratio=1.40 / pbratio=1.30 / aq-mode=1 / aq-strength=1.00 / cutree / zone-count=0 / no-strict-cbr / qg-size=32 / no-rc-grain / qpmax=69 / qpmin=0 / no-const-vbv / sar=1 / overscan=0 / videoformat=5 / range=0 / colorprim=1 / transfer=1 / colormatrix=1 / chromaloc=0 / display-window=0 / max-cll=0,0 / min-luma=0 / max-luma=1023 / log2-max-poc-lsb=8 / vui-timing-info / vui-hrd-info / slices=1 / no-opt-qp-pps / no-opt-ref-list-length-pps / no-multi-pass-opt-rps / scenecut-bias=0.05 / no-opt-cu-delta-qp / no-aq-motion / no-hdr / no-hdr-opt / no-dhdr10-opt / no-idr-recovery-sei / analysis-reuse-level=5 / scale-factor=0 / refine-intra=0 / refine-inter=0 / refine-mv=0 / no-limit-sao / ctu-info=0 / no-lowpass-dct / refine-mv-type=0 / copy-pic=1 / max-ausize-factor=1.0 / no-dynamic-refine / no-single-sei
Язык : English
Default : Да
Forced : Нет
Цветовой диапазон : Limited
Основные цвета : BT.709
Характеристики трансфера : BT.709
Коэффициенты матрицы : BT.709

Аудио #1
Идентификатор : 2
Формат : AC-3
Формат/Информация : Audio Coding 3
Коммерческое название : Dolby Digital
Идентификатор кодека : A_AC3
Продолжительность : 2 ч. 32 м.
Вид битрейта : Постоянный
Битрейт : 448 Кбит/сек
Каналы : 6 каналов
Channel layout : L R C LFE Ls Rs
Частота : 48,0 КГц
Частота кадров : 31,250 кадров/сек (1536 SPF)
Битовая глубина : 16 бит
Метод сжатия : С потерями
Размер потока : 488 Мбайт (7%)
Заголовок : Дубляж
Язык : Russian
ServiceKind/String : Complete Main
Default : Да
Forced : Нет

Аудио #2
Идентификатор : 3
Формат : AC-3
Формат/Информация : Audio Coding 3
Коммерческое название : Dolby Digital
Идентификатор кодека : A_AC3
Продолжительность : 2 ч. 32 м.
Вид битрейта : Постоянный
Битрейт : 448 Кбит/сек
Каналы : 6 каналов
Channel layout : L R C LFE Ls Rs
Частота : 48,0 КГц
Частота кадров : 31,250 кадров/сек (1536 SPF)
Битовая глубина : 16 бит
Метод сжатия : С потерями
Размер потока : 488 Мбайт (7%)
Заголовок : Оригинал
Язык : English
ServiceKind/String : Complete Main
Default : Нет
Forced : Нет

Текст
Идентификатор : 4
Формат : UTF-8
Идентификатор кодека : S_TEXT/UTF8
Идентификатор кодека/Информация : UTF-8 Plain Text
Продолжительность : 2 ч. 30 м.
Битрейт : 97 бит/сек
ElementCount : 1867
Размер потока : 107 Кбайт (0%)
Заголовок : Full
Язык : Russian
Default : Нет
Forced : Нет

Меню
00:00:00.000 : :Robbery Gone Stranger
00:06:23.966 : :Intimidate Mode
00:10:36.260 : :Unknown Limits
00:13:52.581 : :Last Game in Town
00:17:54.198 : :Protector's Mantle
00:21:39.339 : :Kill the Batman
00:26:10.026 : :Hong Kong Holiday
00:29:36.274 : :Why so Serious?
00:31:42.483 : :Landing Lau
00:37:49.058 : :Men of their Word
00:43:34.069 : :Hero with a Face
00:46:39.546 : :Somebody with Access
00:48:57.768 : :Tonight's Entertainment
00:53:19.446 : :Watch the World Burn
00:57:15.640 : :Your Plan is Blackmail?
00:59:26.354 : :Dishonour Guard
01:03:59.627 : :No Rules
01:08:23.557 : :Right Choice
01:10:48.327 : :I am the Batman
01:14:24.918 : :Trip to Country
01:18:05.639 : :Bat-pod Faceoff
01:22:22.437 : :We Got Him
01:24:48.583 : :Good Cop, Bad Cop
01:30:48.442 : :Two-way Race
01:34:04.972 : :Burned Down
01:39:57.783 : :Harvey Two-Face
01:42:05.494 : :Better Class of Criminal
01:44:59.918 : :Watch Out
01:47:00.872 : :Agent of Chaos
01:51:09.913 : :Hospital Boom
01:54:14.639 : :Too Much Power
01:57:04.017 : :Unlucky
02:00:14.248 : :Ferry Scary
02:03:37.576 : :Prewitt Building Siege
02:09:07.614 : :Verge of Fireworks
02:12:27.314 : :Battle for Gotham's Soul
02:15:22.781 : :One Pointing the Gun
02:19:58.681 : :Dark Knight
02:24:26.658 : :End Credits

Дополнительная информация:

В фильме присутствуют IMAX-вставки, которые имеют аспект 16:9 (во весь экран), в отличии от остальных сцен фильма 2.35:1. Потому где-то нет, а где-то есть черные полосы. Без них никак.
Скриншоты:

Дополнительные скриншоты:



Все одноименные релизы в Клубе

Смотреть Online

Детали торрента:
Название:Темный рыцарь / The Dark Knight (2008) BDRip [H.265/1080p-LQ] [10-bit] [IMAX]
Дата добавления:05 Окт 2018 10:23:33
Размер:7,11 GB
Раздают:22
Качают:1
Форум:Зарубежные Фильмы (HD*Rip/LQ, DVDRip, SATRip, VHSRip)

All rights reserved © 2015-2019