TORRENTS45.XYZ

Скачать Псы / Psy (1992) HDTV [H.264/1080i-LQ]


Псы / Psy (1992) HDTV [H.264/1080i-LQ]
Производство: Польша / Студия Фильмов Зебра, Agencja Produkcji Filmowej
Жанр: Боевик, Триллер, Драма, Криминал

Режиссер: Владислав Пасиковский
Актеры: Богуслав Линда, Марек Кондрат, Цезары Пазура, Януш Гайос, Агнешка Ясколькая, Збигнев Запасевич, Збигнев Бельский, Томаш Дедек, Рышард Фисхбах, Марек Фраковяк

Описание:
Польша после падения коммунизма. У нескольких бывших сотрудников Управления безопасности — большие сложности с адаптацией к новой действительности. Теперь их начальниками в полиции стали соперники в прошлом, мягко говоря, не испытывающие к ним симпатии. Бывшие гэбэшники убеждаются, что борьба с бандитами сильно отличается от того, чем они занимались в УБ: уже в одной из первых ночных операций погибают полицейские, а преступникам удается скрыться. Лейтенант Францишек Маурэр решает отомстить убийцам…


Возраст: 18+ (зрителям, достигшим 18 лет. запрещено для детей)

Продолжительность: 01:44:57
Качество видео: HDTV
Перевод: Многоголосый закадровый
Субтитры: отсутствуют

Видео: AVC/H.264, 1920x1080, ~7310 Кbps
Аудио #1: AC3, 2 ch, ~192 Кбит/с (Русский)
Аудио #2: AC3, 2 ch, ~384 Кбит/с (Польский)

Mediainfo:

Общее
Идентификатор : 1 (0x1)
Полное имя : D:Psy 1992 1080i HDTV.H264.ts
Формат : MPEG-TS
Размер файла : 6,09 Гбайт
Продолжительность : 1 ч. 44 м.
Режим общего битрейта : Переменный
Общий поток : 8303 Кбит/сек
Максимальный общий битрейт : 35,5 Мбит/сек

Видео
Идентификатор : 4113 (0x1011)
Идентификатор меню : 1 (0x1)
Формат : AVC
Формат/Информация : Advanced Video Codec
Профиль формата : High@L4
Параметр CABAC формата : Да
Параметр ReFrames формата : 3 кадра
Параметр GOP формата : M=4, N=32
Идентификатор кодека : 27
Продолжительность : 1 ч. 44 м.
Вид битрейта : Переменный
Битрейт : 7310 Кбит/сек
Максимальный битрейт : 40,0 Мбит/сек
Ширина : 1920 пикселей
Высота : 1080 пикселей
Соотношение сторон : 16:9
Частота кадров : 25,000 кадров/сек
Стандарт вещания : Component
Цветовое пространство : YUV
Субдискретизация насыщенности : 4:2:0
Битовая глубина : 8 бит
Тип развёртки : Чересстрочная
Метод сохранения типа развёртки : Раздельные поля
Порядок развёртки : Верхнее поле первое
Бит/(Пиксели*Кадры) : 0.141
Размер потока : 5,36 Гбайт (88%)
Цветовой диапазон : Limited
Основные цвета : BT.709
Характеристики трансфера : BT.709
Коэффициенты матрицы : BT.709

Аудио #1
Идентификатор : 4352 (0x1100)
Идентификатор меню : 1 (0x1)
Формат : AC-3
Формат/Информация : Audio Coding 3
Расширение режима : CM (complete main)
Параметр Endianness формата : Big
Идентификатор кодека : 129
Продолжительность : 1 ч. 44 м.
Вид битрейта : Постоянный
Битрейт : 192 Кбит/сек
Каналы : 2 канала
Расположение каналов : Front: L R
Частота : 48,0 КГц
Частота кадров : 31,250 кадров/сек (1536 spf)
Метод сжатия : С потерями
Размер потока : 144 Мбайт (2%)
Язык : Russian

Аудио #2
Идентификатор : 4353 (0x1101)
Идентификатор меню : 1 (0x1)
Формат : AC-3
Формат/Информация : Audio Coding 3
Расширение режима : CM (complete main)
Параметр Endianness формата : Big
Идентификатор кодека : 129
Продолжительность : 1 ч. 44 м.
Вид битрейта : Постоянный
Битрейт : 384 Кбит/сек
Каналы : 2 канала
Расположение каналов : Front: L R
Частота : 48,0 КГц
Частота кадров : 31,250 кадров/сек (1536 spf)
Метод сжатия : С потерями
Размер потока : 288 Мбайт (5%)
Язык : Polish
Скриншоты:


Все одноименные релизы в Клубе
Детали торрента:
Название:Псы / Psy (1992) HDTV [H.264/1080i-LQ]
Дата добавления:04 Окт 2018 16:45:38
Размер:6,09 GB
Раздают:4
Качают:0
Форум:Зарубежные Фильмы (HD*Rip/LQ, DVDRip, SATRip, VHSRip)

All rights reserved © 2015-2019