TORRENTS45.XYZ

Скачать Бэтмен / Batman (1989) BDRip [H.265/1080p-LQ] [10-bit]


Бэтмен / Batman (1989) BDRip [H.265/1080p-LQ] [10-bit]
Производство: США, Великобритания
Жанр: Фантастика, Боевик, Триллер, Криминал

Режиссер: Тим Бёртон
Актеры: Майкл Китон, Джек Николсон, Ким Бейсингер, Роберт Вул, Пэт Хингл, Билли Ди Уильямс, Майкл Гоф, Джек Пэланс, Джерри Холл, Трейси Уолтер

Описание:
В раннем детстве юный наследник Брюс Уэйн стал свидетелем убийства своих родителей и после этого стал ненавидеть преступность. В Готэме все чаще случались насилия, ограбления и убийства. В трудное для города время появляется герой, способный укротить любого преступника и заставить его бежать в страхе. Таинственный мститель, герой по прозвищу «Бэтмен», встал на защиту слабых и начал свою борьбу с преступниками. Раскрыть таинственность героя, узнать кто скрывается за маской героя хотят журналистка Вики Вейл и репортер Нокс. Тем временем один из преступников уходя от полицейской погони упал в чан с химикатами и превратился в Джокера, который стал угрозой для города. Только Бэтмен может ему помешать…


Возраст: 12+ (зрителям, достигшим 12 лет)
Рейтинг MPAA: PG-13 (детям до 13 лет просмотр нежелателен)
Дата выхода DVD/Blu-ray релиза: 18 августа 2009, «Юниверсал Пикчерс Рус»

Релиз от: PRO-USTAS

Продолжительность: 02:06:19
Качество видео: BDRip
Перевод: Дублированный (Лицензия)
Субтитры: Русские (форсированные, полные), Английские (полные)

Видео: HEVC/H.265, 1920x1080, ~4627 Kbps
Аудио: AC3, 6 ch, 640 Kbps | Русский
Аудио: AC3, 6 ch, 448 Kbps | Английский

Mediainfo:


Общее
Уникальный идентификатор : 187033502106093654161078282881176974419 (0x8CB5579C72F88A62DD8CF637AC303453)
Полное имя : E:\Фильмы\Batman\Бэтмен (1989) BDRip 1080p [HEVC] 10 bit.mkv
Формат : Matroska
Версия формата : Version 4
Размер файла : 5,06 Гбайт
Продолжительность : 2 ч. 6 м.
Общий поток : 5735 Кбит/сек
Название фильма : Rip_by_PRO-USTAS
Дата кодирования : UTC 2018-10-04 09:08:30
Программа кодирования : mkvmerge v19.0.0 ('Brave Captain') 64-bit
Библиотека кодирования : libebml v1.3.5 + libmatroska v1.4.8
Обложка : Yes
Attachments : cover.jpg

Видео
Идентификатор : 1
Формат : HEVC
Формат/Информация : High Efficiency Video Coding
Профиль формата : Main 10@L4.1@High
Идентификатор кодека : V_MPEGH/ISO/HEVC
Продолжительность : 2 ч. 6 м.
Битрейт : 4627 Кбит/сек
Ширина : 1920 пикселей
Высота : 1080 пикселей
Соотношение сторон : 16:9
Режим частоты кадров : Постоянный
Частота кадров : 23,976 (24000/1001) кадра/сек
Цветовое пространство : YUV
Субдискретизация насыщенности : 4:2:0
Битовая глубина : 10 бит
Бит/(Пиксели*Кадры) : 0.093
Размер потока : 4,08 Гбайт (81%)
Библиотека кодирования : x265 2.8+19-bcdc610cf5f0:[Windows][GCC 7.3.0][64 bit] 10bit
Настройки программы : cpuid=1111039 / frame-threads=9 / numa-pools=8 / wpp / no-pmode / no-pme / no-psnr / no-ssim / log-level=3 / input-csp=1 / input-res=1920x1080 / interlace=0 / total-frames=0 / level-idc=41 / high-tier=1 / uhd-bd=0 / ref=5 / allow-non-conformance / no-repeat-headers / annexb / no-aud / no-hrd / info / hash=0 / no-temporal-layers / open-gop / min-keyint=24 / keyint=240 / gop-lookahead=0 / bframes=8 / b-adapt=2 / b-pyramid / bframe-bias=0 / rc-lookahead=40 / lookahead-slices=6 / scenecut=40 / radl=0 / no-intra-refresh / ctu=64 / min-cu-size=8 / no-rect / no-amp / max-tu-size=32 / tu-inter-depth=1 / tu-intra-depth=1 / limit-tu=0 / rdoq-level=0 / dynamic-rd=0.00 / no-ssim-rd / signhide / no-tskip / nr-intra=0 / nr-inter=0 / no-constrained-intra / strong-intra-smoothing / max-merge=2 / limit-refs=3 / no-limit-modes / me=3 / subme=7 / merange=57 / temporal-mvp / weightp / no-weightb / no-analyze-src-pics / deblock=-3:-3 / no-sao / no-sao-non-deblock / rd=3 / no-early-skip / rskip / no-fast-intra / no-tskip-fast / no-cu-lossless / no-b-intra / no-splitrd-skip / rdpenalty=0 / psy-rd=2.00 / psy-rdoq=0.00 / no-rd-refine / no-lossless / cbqpoffs=0 / crqpoffs=0 / rc=crf / crf=18.0 / qcomp=0.60 / qpstep=4 / stats-write=0 / stats-read=0 / vbv-maxrate=50000 / vbv-bufsize=50000 / vbv-init=0.9 / crf-max=0.0 / crf-min=0.0 / ipratio=1.40 / pbratio=1.30 / aq-mode=1 / aq-strength=1.00 / cutree / zone-count=0 / no-strict-cbr / qg-size=32 / no-rc-grain / qpmax=69 / qpmin=0 / no-const-vbv / sar=1 / overscan=0 / videoformat=5 / range=0 / colorprim=1 / transfer=1 / colormatrix=1 / chromaloc=0 / display-window=0 / max-cll=0,0 / min-luma=0 / max-luma=1023 / log2-max-poc-lsb=8 / vui-timing-info / vui-hrd-info / slices=1 / no-opt-qp-pps / no-opt-ref-list-length-pps / no-multi-pass-opt-rps / scenecut-bias=0.05 / no-opt-cu-delta-qp / no-aq-motion / no-hdr / no-hdr-opt / no-dhdr10-opt / no-idr-recovery-sei / analysis-reuse-level=5 / scale-factor=0 / refine-intra=0 / refine-inter=0 / refine-mv=0 / no-limit-sao / ctu-info=0 / no-lowpass-dct / refine-mv-type=0 / copy-pic=1 / max-ausize-factor=1.0 / no-dynamic-refine / no-single-sei
Язык : English
Default : Да
Forced : Нет
Цветовой диапазон : Limited
Основные цвета : BT.709
Характеристики трансфера : BT.709
Коэффициенты матрицы : BT.709

Аудио #1
Идентификатор : 2
Формат : AC-3
Формат/Информация : Audio Coding 3
Коммерческое название : Dolby Digital
Идентификатор кодека : A_AC3
Продолжительность : 2 ч. 6 м.
Вид битрейта : Постоянный
Битрейт : 640 Кбит/сек
Каналы : 6 каналов
Channel layout : L R C LFE Ls Rs
Частота : 48,0 КГц
Частота кадров : 31,250 кадров/сек (1536 SPF)
Битовая глубина : 16 бит
Метод сжатия : С потерями
Размер потока : 578 Мбайт (11%)
Заголовок : Дубляж
Язык : Russian
ServiceKind/String : Complete Main
Default : Да
Forced : Нет

Аудио #2
Идентификатор : 3
Формат : AC-3
Формат/Информация : Audio Coding 3
Коммерческое название : Dolby Digital
Идентификатор кодека : A_AC3
Продолжительность : 2 ч. 6 м.
Вид битрейта : Постоянный
Битрейт : 448 Кбит/сек
Каналы : 6 каналов
Channel layout : L R C LFE Ls Rs
Частота : 48,0 КГц
Частота кадров : 31,250 кадров/сек (1536 SPF)
Битовая глубина : 16 бит
Метод сжатия : С потерями
Размер потока : 405 Мбайт (8%)
Заголовок : Оригинал
Язык : English
ServiceKind/String : Complete Main
Default : Нет
Forced : Нет

Текст #1
Идентификатор : 4
Формат : PGS
Режим смешивания : zlib
Идентификатор кодека : S_HDMV/PGS
Идентификатор кодека/Информация : Picture based subtitle format used on BDs/HD-DVDs
Продолжительность : 2 ч. 3 м.
Битрейт : 21,6 Кбит/сек
ElementCount : 8864
Размер потока : 19,1 Мбайт (0%)
Язык : English
Default : Да
Forced : Нет

Текст #2
Идентификатор : 5
Формат : PGS
Режим смешивания : zlib
Идентификатор кодека : S_HDMV/PGS
Идентификатор кодека/Информация : Picture based subtitle format used on BDs/HD-DVDs
Продолжительность : 2 ч. 3 м.
Битрейт : 17,1 Кбит/сек
ElementCount : 8064
Размер потока : 15,1 Мбайт (0%)
Язык : Russian
Default : Нет
Forced : Нет

Меню
00:00:00.000 : :Глава 1
00:02:32.944 : :Глава 2
00:07:03.881 : :Глава 3
00:09:26.857 : :Глава 4
00:12:22.324 : :Глава 5
00:14:42.131 : :Глава 6
00:17:03.981 : :Глава 7
00:20:05.454 : :Глава 8
00:23:58.061 : :Глава 9
00:27:05.999 : :Глава 10
00:30:25.615 : :Глава 11
00:34:12.508 : :Глава 12
00:36:13.796 : :Глава 13
00:38:24.552 : :Глава 14
00:41:06.297 : :Глава 15
00:45:06.745 : :Глава 16
00:48:07.050 : :Глава 17
00:50:51.715 : :Глава 18
00:54:19.130 : :Глава 19
00:57:54.345 : :Глава 20
00:59:34.320 : :Глава 21
01:06:38.035 : :Глава 22
01:12:24.173 : :Глава 23
01:16:29.209 : :Глава 24
01:18:19.111 : :Глава 25
01:21:10.699 : :Глава 26
01:25:30.083 : :Глава 27
01:27:24.989 : :Глава 28
01:29:32.950 : :Глава 29
01:33:58.049 : :Глава 30
01:35:50.369 : :Глава 31
01:38:15.806 : :Глава 32
01:42:43.866 : :Глава 33
01:46:34.262 : :Глава 34
01:50:10.979 : :Глава 35
01:53:20.210 : :Глава 36
01:59:43.217 : :Глава 37
02:02:30.259 : :Глава 38
02:06:19.613 : :Глава 39
Скриншоты:

Дополнительные скриншоты:



Все одноименные релизы в Клубе

Смотреть Online

Детали торрента:
Название:Бэтмен / Batman (1989) BDRip [H.265/1080p-LQ] [10-bit]
Дата добавления:04 Окт 2018 12:22:29
Размер:5,06 GB
Раздают:3
Качают:0
Форум:Зарубежные Фильмы (HD*Rip/LQ, DVDRip, SATRip, VHSRip)

All rights reserved © 2015-2019