TORRENTS45.XYZ

Скачать Рик и Морти / Rick and Morty (2017) HDTVRip [H.264/720p-LQ] (Сезон 3, серии 1-1 из 10) Sunshine Studio


Рик и Морти / Rick and Morty (2017) HDTVRip [H.264/720p-LQ] (Сезон 3, серии 1-1 из 10) Sunshine Studio
Производство: США
Жанр: Мультфильм, Комедия, Фантастика

Режиссер: Пит Мишелс, Брайан Ньютон, Джон Райс
Актеры: Джастин Ройланд, Крис Парнелл, Спенсер Грэммер, Сара Чок, Кари Уолгрен, Райан Ридли, Том Кенни, Морис ЛаМарш, Фил Хендри, Брэндон Джонсон и др.

Описание:
В центре сюжета обычный школьник по имени Морти и его не совсем вменяемый дедушка Рик, который очень любит выпить. Морти — самый обычный мальчик, и ни чем не отличается от своих сверстников. А вот его дедуля занимается необычными научными исследованиями, и зачастую полностью неадекватен. Он может в любое время дня и ночи схватить внука и отправиться вместе с ним в межпространственные приключения с помощью построенной из разного хлама летающей тарелки, которая способна перемещаться сквозь временной туннель. Каждый раз эта парочка оказывается в самых неожиданных местах, из-за чего очень часто дед и внук оказываются в нелепых и непредвиденных ситуациях. Родители мальчика далеко не в восторге от выходок Рика, и пытаются доказать ему, что он поступает неправильно. Однако несмотря ни на что Морти и пожилой ученый каждый раз отправляются в очередное путешествие, где их ждут новые невероятные приключения…


Возраст: 18+ (зрителям, достигшим 18 лет. запрещено для детей)
Рейтинг MPAA: PG-13 (детям до 13 лет просмотр нежелателен)

Продолжительность: 00:23:00 серия
Качество видео: HDTVRip
Перевод: Многоголосый закадровый, любительский (Sunshine Studio)
Субтитры: Отсутствуют
Реклама: присутствуют аудио и видео вставки рекламы

Видео: AVC/H.264, 1280x720, ~2500 Kbps
Аудио: AC3, 2 ch, 192 Kbps

Mediainfo:


Общее
Уникальный идентификатор : 237524285050151632123264873958958271462 (0xB2B183684424617EAF333265E9018BE6)
Полное имя : E:\Новая папка\Rick.and.Morty.S03.720p.SunshineStudio\Rick.and.Morty.S03E01.720p.SunshineStudio.mkv
Формат : Matroska
Версия формата : Version 4 / Version 2
Размер файла : 402 Мбайт
Продолжительность : 23 м. 17 с.
Общий поток : 2410 Кбит/сек
Дата кодирования : UTC 2017-04-02 13:17:15
Программа кодирования : mkvmerge v8.3.0 ('Over the Horizon') 64bit
Библиотека кодирования : libebml v1.3.1 + libmatroska v1.4.2

Видео
Идентификатор : 1
Формат : AVC
Формат/Информация : Advanced Video Codec
Профиль формата : High@L3.1
Параметр CABAC формата : Да
Параметр ReFrames формата : 4 кадра
Идентификатор кодека : V_MPEG4/ISO/AVC
Продолжительность : 23 м. 17 с.
Битрейт : 2216 Кбит/сек
Ширина : 1280 пикселей
Высота : 720 пикселей
Соотношение сторон : 16:9
Режим частоты кадров : Постоянный
Частота кадров : 23,976 (23976/1000) кадра/сек
Цветовое пространство : YUV
Субдискретизация насыщенности : 4:2:0
Битовая глубина : 8 бит
Тип развёртки : Прогрессивная
Бит/(Пиксели*Кадры) : 0.100
Размер потока : 369 Мбайт (92%)
Библиотека кодирования : x264 core 146 r2538 121396c
Настройки программы : cabac=1 / ref=1 / deblock=1:0:0 / analyse=0x3:0x113 / me=hex / subme=2 / psy=1 / psy_rd=1.00:0.00 / mixed_ref=0 / me_range=16 / chroma_me=1 / trellis=0 / 8x8dct=1 / cqm=0 / deadzone=21,11 / fast_pskip=1 / chroma_qp_offset=0 / threads=9 / lookahead_threads=3 / sliced_threads=0 / nr=0 / decimate=1 / interlaced=0 / bluray_compat=0 / constrained_intra=0 / bframes=3 / b_pyramid=2 / b_adapt=1 / b_bias=0 / direct=1 / weightb=1 / open_gop=0 / weightp=1 / keyint=250 / keyint_min=23 / scenecut=40 / intra_refresh=0 / rc_lookahead=10 / rc=crf / mbtree=1 / crf=18.0 / qcomp=0.60 / qpmin=0 / qpmax=69 / qpstep=4 / ip_ratio=1.40 / aq=1:1.00
Default : Да
Forced : Нет

Аудио
Идентификатор : 2
Формат : AC-3
Формат/Информация : Audio Coding 3
Расширение режима : CM (complete main)
Параметр Endianness формата : Big
Идентификатор кодека : A_AC3
Продолжительность : 23 м. 17 с.
Вид битрейта : Постоянный
Битрейт : 192 Кбит/сек
Каналы : 2 канала
Расположение каналов : Front: L R
Частота : 48,0 КГц
Частота кадров : 31,250 кадров/сек (1536 spf)
Битовая глубина : 16 бит
Метод сжатия : С потерями
Размер потока : 32,0 Мбайт (8%)
Default : Да
Forced : Нет
Скриншоты:


Все одноименные релизы в Клубе

Смотреть Online

Детали торрента:
Название:Рик и Морти / Rick and Morty (2017) HDTVRip [H.264/720p-LQ] (Сезон 3, серии 1-1 из 10) Sunshine Studio
Дата добавления:02 Апр 2017 18:15:36
Размер:402 MB
Раздают:
Качают:0
Форум:Зарубежные Мультсериалы

All rights reserved © 2015-2019