TORRENTS45.XYZ

Скачать Голос (2016.11.25) SATRip (сезон 5, выпуск 13)


Голос (2016.11.25) SATRip (сезон 5, выпуск 13)
Телекомпания: Первый канал
Жанр: ТВ-Шоу, развлекательный
Ведущий: Дмитрий Нагиев
Жюри: Григорий Лепс, Полина Гагарина, Леонид Агутин и Дима Билан.

Описание:
"Первый канал" объявляет о премьере нового сезона музыкального проекта "Голос". Из тысяч претендентов, приславших минувшим летом свои заявки на участие, отобраны полторы сотни тех, кто поднимется на ставшую уже знаменитой на всю страну сцену во время "слепых прослушиваний" в надежде покорить слух требовательных наставников. Зрителей ждут новые голоса, новые мелодии и новые песни. Музыкальные наставники наберут свои команды, а затем сами же "разберут" их, открывая дорогу вперед лишь лучшим из лучших. В конце концов дальнейшую судьбу участников будут решать уже зрители на прямых эфирах, а в финале сезона страна узнает имя победителя нового "Голоса"!

Релиз от: -=DeMoH=-
Продолжительность: ~ 01:41:27
Качество видео: SATRip
Субтитры: Отсутствуют

Видео: MPEG4, XviD, 704x448 (1.571), 25.000 fps, 1 800 Kbps (0.228 bit/pixel)
Аудио: AC-3, 48.0 KHz, 2 ch, 192 Kbps, CBR

Mediainfo:

Код: выделить все
 Общее
Полное имя                               : D:\[1]\Голос\Голос. Сезон 5. Выпуск 13 (2016.11.25).avi
Формат                                   : AVI
Формат/Информация                        : Audio Video Interleave
Размер файла                             : 1,42 Гбайт
Продолжительность                        : 1 ч. 41 м.
Общий поток                              : 2002 Кбит/сек
Программа кодирования                    : VirtualDubMod 1.5.10.3 | www.virtualdub-fr.org || (build 2550/release)
Библиотека кодирования                   : VirtualDubMod build 2550/release

Видео
Идентификатор                            : 0
Формат                                   : MPEG-4 Visual
Профиль формата                          : Advanced Simple@L5
Параметр BVOP формата                    : 2
Параметр QPel формата                    : Нет
Параметр GMC формата                     : Без точки перехода
Параметр матрицы формата                 : Default (H.263)
Идентификатор кодека                     : XVID
Идентификатор кодека/Подсказка           : XviD
Продолжительность                        : 1 ч. 41 м.
Битрейт                                  : 1800 Кбит/сек
Ширина                                   : 704 пикселя
Высота                                   : 448 пикселей
Соотношение сторон                       : 16:10
Частота кадров                           : 25,000 кадров/сек
Цветовое пространство                    : YUV
Субдискретизация насыщенности            : 4:2:0
Битовая глубина                          : 8 бит
Тип развёртки                            : Прогрессивная
Метод сжатия                             : С потерями
Бит/(Пиксели*Кадры)                      : 0.228
Размер потока                            : 1,28 Гбайт (90%)
Библиотека кодирования                   : XviD 1.2.1 (UTC 2008-12-04)

Аудио
Идентификатор                            : 1
Формат                                   : AC-3
Формат/Информация                        : Audio Coding 3
Расширение режима                        : CM (complete main)
Параметр Endianness формата              : Big
Идентификатор кодека                     : 2000
Продолжительность                        : 1 ч. 41 м.
Вид битрейта                             : Постоянный
Битрейт                                  : 192 Кбит/сек
Каналы                                   : 2 канала
Расположение каналов                     : Front: L R
Частота                                  : 48,0 КГц
Битовая глубина                          : 16 бит
Метод сжатия                             : С потерями
Размер потока                            : 139 Мбайт (10%)
Выравнивание                             : Разделение по промежуткам
Продолжительность промежутка             : 40  мс. (1,00 видеокадр)
Время предзагрузки промежутка            : 500  мс.
 
Скриншоты:



Все одноименные релизы в Клубе

Смотреть Online

Детали торрента:
Название:Голос (2016.11.25) SATRip (сезон 5, выпуск 13)
Дата добавления:25 Ноя 2016 17:49:10
Размер:1,42 GB
Раздают:
Качают:0
Форум:Музыкальные шоу

All rights reserved © 2015-2019