TORRENTS45.XYZ

Скачать Горячий шоколад - О нём (2015) [WavPack|Lossless|tracks + .cue] <Pop, Dance-Pop>


Горячий шоколад - О нём (2015)
Год: 2015
Жанр: Pop, Dance-Pop
Продолжительность: 00:41:40

Кодек: WavPack
Битрейт: Lossless
Тип рипа: tracks + .cue

Треклист:
01 Стала лучшей из лучших (00:03:14)
02 Две недели рая (00:03:50)
03 Ты обними (00:02:58)
04 С тобой (00:03:49)
05 Без ума от счастья (00:03:48)
06 о нём (00:04:06)
07 Стены (00:03:17)
08 я хочу к тебе (00:03:15)
09 Не могу отвыкнуть (00:03:14)
10 Позвони мне... (Комарово) (00:03:10)
11 Люби меня, люби (00:03:28)
12 За тобой (00:03:31)

Отчёт EAC:

Код:

Exact Audio Copy V1.3 from 2. September 2016

Отчёт EAC об извлечении, выполненном 23. сентября 2016, 18:59

Горячий шоколад / о нём

Дисковод: TSSTcorpCDDVDW SE-S084D   Adapter: 1  ID: 3

Режим чтения                 : Достоверность
Использование точного потока : Да
Отключение кэша аудио        : Да
Использование указателей C2  : Нет

Коррекция смещения при чтении                     : 6
Способность читать области Lead-in и Lead-out     : Нет
Заполнение пропущенных сэмплов тишиной            : Да
Удаление блоков с тишиной в начале и конце        : Нет
При вычислениях CRC использовались нулевые сэмплы : Да
Интерфейс                                         : Встроенный Win32-интерфейс для Win NT/2000
Обработка зазоров                                 : Добавлено к предыдущему треку

Выходной формат          : Пользовательский кодировщик
Выбранный битрейт        : 768 kBit/s
Качество                 : Высокий
Добавление ID3-тега      : Нет
Утилита сжатия           : WAVpack__v.4.80__Normal LossLess Compression.exe
Дополнительные параметры : -mv -w "comment=трудился  РУ€_ик  (wvaac)" -w "DiscID=%cddbid%" --write-binary-tag "Cover Art (Front)=@обложка_1.jpg" --write-binary-tag "Cover Art (back)=@`тыльник_1.jpg" --write-binary-tag "Cover Art (Disc)=@диск_1.jpg" -w "Track=%tracknr2%/%numtracks%" -w "Artist=%artist%" -w "Title=%title%" -w "Album=%albumtitle%" -w "AlbumArtist=%albumartist%" -w "Year=%year%" -w "Genre=%genre%" %source% %dest%

TOC извлечённого CD

     Трек |   Старт  | Длительность | Начальный сектор | Конечный сектор
    ---------------------------------------------------------------------
       1  |  0:00.00 |    3:14.20   |           0      |      14569
       2  |  3:14.20 |    3:50.17   |       14570      |      31836
       3  |  7:04.37 |    2:58.14   |       31837      |      45200
       4  | 10:02.51 |    3:49.04   |       45201      |      62379
       5  | 13:51.55 |    3:47.68   |       62380      |      79472
       6  | 17:39.48 |    4:05.71   |       79473      |      97918
       7  | 21:45.44 |    3:16.50   |       97919      |     112668
       8  | 25:02.19 |    3:15.04   |      112669      |     127297
       9  | 28:17.23 |    3:13.50   |      127298      |     141822
      10  | 31:30.73 |    3:09.54   |      141823      |     156051
      11  | 34:40.52 |    3:28.25   |      156052      |     171676
      12  | 38:09.02 |    3:31.05   |      171677      |     187506

Трек  1

     Имя файла D:\123\01 - Стала лучшей из лучших.wav

     Длина предзазора  0:00:02.00

     Пиковый уровень 82.6 %
     Скорость извлечения 2.5 X
     Качество трека 100.0 %
     CRC теста 4800C043
     CRC копии 4800C043
     Точное извлечение (достоверность 1)  [2BFB4BA6]  (AR v2)
     Копирование... OK

Трек  2

     Имя файла D:\123\02 - Две недели рая.wav

     Пиковый уровень 60.9 %
     Скорость извлечения 2.8 X
     Качество трека 100.0 %
     CRC теста 973225E3
     CRC копии 973225E3
     Точное извлечение (достоверность 1)  [87A719F8]  (AR v2)
     Копирование... OK

Трек  3

     Имя файла D:\123\03 - Ты обними.wav

     Пиковый уровень 69.9 %
     Скорость извлечения 2.9 X
     Качество трека 100.0 %
     CRC теста A88A45C8
     CRC копии A88A45C8
     Точное извлечение (достоверность 1)  [6BB121B9]  (AR v2)
     Копирование... OK

Трек  4

     Имя файла D:\123\04 - С тобой.wav

     Пиковый уровень 66.0 %
     Скорость извлечения 2.5 X
     Качество трека 99.9 %
     CRC теста EA012A4E
     CRC копии EA012A4E
     Точное извлечение (достоверность 1)  [5F44ABB6]  (AR v2)
     Копирование... OK

Трек  5

     Имя файла D:\123\05 - Без ума от счастья.wav

     Пиковый уровень 72.0 %
     Скорость извлечения 3.3 X
     Качество трека 100.0 %
     CRC теста 96A9C966
     CRC копии 96A9C966
     Точное извлечение (достоверность 1)  [BA31CBAB]  (AR v2)
     Копирование... OK

Трек  6

     Имя файла D:\123\06 - о нём.wav

     Пиковый уровень 75.5 %
     Скорость извлечения 3.5 X
     Качество трека 100.0 %
     CRC теста 6F2CD5F1
     CRC копии 6F2CD5F1
     Точное извлечение (достоверность 1)  [FEC3EFCD]  (AR v2)
     Копирование... OK

Трек  7

     Имя файла D:\123\07 - Стены.wav

     Пиковый уровень 56.7 %
     Скорость извлечения 3.6 X
     Качество трека 100.0 %
     CRC теста B07A30C8
     CRC копии B07A30C8
     Точное извлечение (достоверность 1)  [957E2616]  (AR v2)
     Копирование... OK

Трек  8

     Имя файла D:\123\08 - я хочу к тебе.wav

     Пиковый уровень 70.5 %
     Скорость извлечения 3.7 X
     Качество трека 100.0 %
     CRC теста AF705C55
     CRC копии AF705C55
     Точное извлечение (достоверность 1)  [D85262A4]  (AR v2)
     Копирование... OK

Трек  9

     Имя файла D:\123\09 - Не могу отвыкнуть.wav

     Пиковый уровень 87.0 %
     Скорость извлечения 3.8 X
     Качество трека 100.0 %
     CRC теста AAFBFA00
     CRC копии AAFBFA00
     Точное извлечение (достоверность 1)  [16089C29]  (AR v2)
     Копирование... OK

Трек 10

     Имя файла D:\123\10 - Позвони мне... (Комарово).wav

     Пиковый уровень 65.8 %
     Скорость извлечения 3.9 X
     Качество трека 100.0 %
     CRC теста 0E5FAF0B
     CRC копии 0E5FAF0B
     Точное извлечение (достоверность 1)  [8BCD3157]  (AR v2)
     Копирование... OK

Трек 11

     Имя файла D:\123\11 - Люби меня, люби.wav

     Пиковый уровень 79.3 %
     Скорость извлечения 4.1 X
     Качество трека 100.0 %
     CRC теста 17DB58F2
     CRC копии 17DB58F2
     Точное извлечение (достоверность 1)  [20932818]  (AR v2)
     Копирование... OK

Трек 12

     Имя файла D:\123\12 - За тобой.wav

     Пиковый уровень 98.0 %
     Скорость извлечения 4.2 X
     Качество трека 100.0 %
     CRC теста E1224608
     CRC копии E1224608
     Точное извлечение (достоверность 1)  [9F38FC86]  (AR v2)
     Копирование... OK

Все треки извлечены точно

Ошибок не произошло

Конец отчёта

---- CUETools DB Plugin V2.1.6

[CTDB TOCID: 5V9VUyBf3r5FHnffS0G1Mxriqtk-] found
Submit result: already submitted
Track | CTDB Status
  1   | (1/1) Accurately ripped
  2   | (1/1) Accurately ripped
  3   | (1/1) Accurately ripped
  4   | (1/1) Accurately ripped
  5   | (1/1) Accurately ripped
  6   | (1/1) Accurately ripped
  7   | (1/1) Accurately ripped
  8   | (1/1) Accurately ripped
  9   | (1/1) Accurately ripped
 10   | (1/1) Accurately ripped
 11   | (1/1) Accurately ripped
 12   | (1/1) Accurately ripped

==== Контрольная сумма отчёта 179BF0C27DCB767FC5AB2B0547DE2792D3BE4E2F0E7644F62996A6A6E1994B6B ====

Cue Sheet (.cue):

Код:

REM GENRE "Pop, Dance-Pop"
REM DATE 2015
REM DISCID 9A09C40C
REM COMMENT "ExactAudioCopy v1.3"
PERFORMER"Горячий шоколад"
TITLE "о нём"
REM COMPOSER ""
FILE "01 - Стала лучшей из лучших.wav" WAVE
  TRACK 01 AUDIO
    TITLE "Стала лучшей из лучших"
    PERFORMER "Горячий шоколад"
    REM COMPOSER ""
    INDEX 01 00:00:00
FILE "02 - Две недели рая.wav" WAVE
  TRACK 02 AUDIO
    TITLE "Две недели рая"
    PERFORMER "Горячий шоколад"
    REM COMPOSER ""
    INDEX 01 00:00:00
FILE"03 - Ты обними.wav" WAVE
  TRACK 03 AUDIO
    TITLE "Ты обними"
    PERFORMER "Горячий шоколад"
    REM COMPOSER ""
    INDEX 01 00:00:00
FILE "04 - С тобой.wav" WAVE
  TRACK 04 AUDIO
    TITLE "С тобой"
    PERFORMER "Горячий шоколад"
    REM COMPOSER ""
    INDEX 01 00:00:00
FILE"05 - Без ума от счастья.wav" WAVE
  TRACK 05 AUDIO
    TITLE "Без ума от счастья"
    PERFORMER "Горячий шоколад"
    REM COMPOSER ""
    INDEX 01 00:00:00
FILE "06 - о нём.wav" WAVE
  TRACK 06 AUDIO
    TITLE "о нём"
    PERFORMER "Горячий шоколад"
    REM COMPOSER ""
    INDEX 01 00:00:00
FILE"07 - Стены.wav" WAVE
  TRACK 07 AUDIO
    TITLE "Стены"
    PERFORMER "Горячий шоколад"
    REM COMPOSER ""
    INDEX 01 00:00:00
FILE "08 - я хочу к тебе.wav" WAVE
  TRACK 08 AUDIO
    TITLE "я хочу к тебе"
    PERFORMER "Горячий шоколад"
    REM COMPOSER ""
    INDEX 01 00:00:00
FILE "09 - Не могу отвыкнуть.wav" WAVE
 TRACK 09 AUDIO
    TITLE "Не могу отвыкнуть"
    PERFORMER "Горячий шоколад"
    REM COMPOSER ""
    INDEX 01 00:00:00
FILE "10 - Позвони мне... (Комарово).wav" WAVE
  TRACK 10 AUDIO
    TITLE "Позвони мне... (Комарово)"
    PERFORMER "Горячий шоколад"
    REM COMPOSER ""
    INDEX 01 00:00:00
FILE "11 - Люби меня, люби.wav" WAVE
 TRACK 11 AUDIO
    TITLE "Люби меня, люби"
    PERFORMER "Горячий шоколад"
    REM COMPOSER ""
    INDEX 01 00:00:00
FILE "12 - За тобой.wav" WAVE
  TRACK 12 AUDIO
    TITLE "За тобой"
    PERFORMER "Горячий шоколад"
    REM COMPOSER ""
    INDEX 01 00:00:00

Отчёт auCDtect Task manager:

Код:

-----------------------

DON'T MODIFY THIS FILE

-----------------------

PERFORMER: auCDtect Task Manager, ver. 1.6.0 RC1 build 1.6.0.1
Copyright (c) 2008-2010 y-soft. All rights reserved
http://y-soft.org

ANALYZER: auCDtect: CD records authenticity detector, version 0.8.2
Copyright (c) 2004 Oleg Berngardt. All rights reserved.
Copyright (c) 2004 Alexander Djourik. All rights reserved.

FILE: 12 - За тобой.wv
  Size: 26842880 Hash: 714A32D47076509D7D1A92DF2FABB1EB Accuracy: -m0
  Conclusion: CDDA 100%
  Signature: ACD1DDB3F0BF9F26A78BD59E05D5EEC9B8718CB2
FILE: 11 - Люби меня, люби.wv
  Size: 26152814 Hash: 7091258B3623197A7FA38964394A022E Accuracy: -m0
  Conclusion: CDDA 100%
  Signature: 5DD30C99EE6EC99EA8D4A30AF8D838C713F3393C
FILE: 10 - Позвони мне... (Комарово).wv
  Size: 25217556 Hash: 976C287FC541A5EE1B330CB3B68E7D3E Accuracy: -m0
  Conclusion: CDDA 100%
  Signature: 9849806FB84B13149F4ED04B18CB29B8C460FFFD
FILE: 09 - Не могу отвыкнуть.wv
  Size: 22970831 Hash: E141F52E4A946D412C9DC5321D32CDA1 Accuracy: -m0
  Conclusion: CDDA 100%
  Signature: E9F970FE4FBE70AEEFC73640BDA8CB2B3DAB2DDB
FILE: 08 - я хочу к тебе.wv
  Size: 22981504 Hash: C63896F2993725FE2DEBE236709E25A8 Accuracy: -m0
  Conclusion: CDDA 100%
  Signature: F902B8B3E4BCC65C05B05A9D34696C71FF7B3C6C
FILE: 07 - Стены.wv
  Size: 26050717 Hash: 6860359E54983A81A010A3E23CFE8A1B Accuracy: -m0
  Conclusion: CDDA 100%
  Signature: F3FAB0FF9D4FBEBB31F5CBB2AC1E6C94448D8CF6
FILE: 06 - о нём.wv
  Size: 28629260 Hash: 2D100C58C2335F33CE9BCDD656776711 Accuracy: -m0
  Conclusion: CDDA 99%
  Signature: 550B7676F977D71DBAA485BCF65CFC594BBF123F
FILE: 05 - Без ума от счастья.wv
  Size: 27527684 Hash: B73682284A80914C80941367DD7FF2CD Accuracy: -m0
  Conclusion: MPEG 95%
  Signature: 3D0167A7BA6B5C6F7D203469D41CB57535E9ACAC
FILE: 04 - С тобой.wv
  Size: 28037228 Hash: 32097CE78EC36214482960EC3A6AA41B Accuracy: -m0
  Conclusion: MPEG 95%
  Signature: D2AD5B7248107B9B887035DA920F425575A15C69
FILE: 03 - Ты обними.wv
  Size: 21454094 Hash: 718FBC4AFB5CE1CB1A196ABBD1EC586A Accuracy: -m0
  Conclusion: CDDA 100%
  Signature: 907C061F57A855644430980F4ABC9C003DA0B8AB
FILE: 02 - Две недели рая.wv
  Size: 29416785 Hash: E41881C3B23491FF8EC424AD28F7DA35 Accuracy: -m0
  Conclusion: CDDA 100%
  Signature: 4532430D3D252580F887A3DD0F1FC2216130F08E
FILE: 01 - Стала лучшей из лучших.wv
  Size: 22224546 Hash: F57326F0FDF64734DF7305A174D4DE65 Accuracy: -m0
  Conclusion: CDDA 100%
  Signature: DEE26FE325E7C44524F14E9CF18CD9A5532A8340

Спектрограмма:






Поглощение/вытеснение
Только с согласия релизера

chaosman1986
Детали торрента:
Название:Горячий шоколад - О нём (2015) [WavPack|Lossless|tracks + .cue] <Pop, Dance-Pop>
Дата добавления:30 Сен 2016 10:50:22
Размер:302 MB
Раздают:
Качают:0
Форум:Отечественная поп-музыка (Lossless)

All rights reserved © 2015-2019