TORRENTS45.XYZ

Скачать Jessica Williams - ‘… And Then, There's This!’ (1990) Remaster, 2015, Solid Records[FLAC|Lossless|tracks + .cue] <Post-Bop, Piano Jazz>


Jessica Williams - ‘… And Then, There's This!’ (1990) Remaster, 2015, Solid Records
Год: 2015
Год записи: 1990
Жанр: Post-Bop, Piano Jazz
Издание: Timeless Records / Solid Records - CDSOL-6381
Продолжительность: 00:51:05

Кодек: FLAC (tracks+.cue)
Битрейт: Lossless
Источник (релизер): ruskaval
Страна-производитель диска: Japan
Наличие сканов в содержимом раздачи: да

Треклист:

01.Bemsha Swing [05:47]
02.... And Then, There's This! [04:48]
03.All Alone [05:58]
04.Nichol's Bag [06:12]
05.The Child Within [04:45]
06.Elaine [05:59]
07.The House That Rouse Built [06:04]
08.Newk's Fluke [03:41]
09.Swanee [04:28]
10.I Mean You [03:27]

Отчёт EAC:

Код:

Exact Audio Copy V1.1 from 23. June 2015

EAC extraction logfile from 29. July 2016, 22:41

Jessica Williams / '... And Then, There's This!'

Used drive  : HL-DT-STDVDRAM GP50NW41   Adapter: 1  ID: 0

Read mode               : Secure
Utilize accurate stream : Yes
Defeat audio cache      : Yes
Make use of C2 pointers : No

Read offset correction                      : 6
Overread into Lead-In and Lead-Out          : No
Fill up missing offset samples with silence : Yes
Delete leading and trailing silent blocks   : No
Null samples used in CRC calculations       : Yes
Used interface                              : Native Win32 interface for Win NT & 2000
Gap handling                                : Appended to previous track

Used output format              : User Defined Encoder
Selected bitrate                : 1024 kBit/s
Quality                         : High
Add ID3 tag                     : No
Command line compressor         : C:\Program Files (x86)\FLAC Frontend\tools\flac.exe
Additional command line options : -8 -V -T "ARTIST=%artist%" -T "TITLE=%title%" -T "ALBUM=%albumtitle%" -T "DATE=%year%" -T "TRACKNUMBER=%tracknr%" -T "TOTALTRACKS=%numtracks%" -T "GENRE=%genre%" -T "ALBUMARTIST=%albumartist%" -T "ALBUM ARTIST=%albumartist%" -T "COMMENT=EAC Secure Mode, Test & Copy, AccurateRip, FLAC -8" %source%

TOC of the extracted CD

     Track |   Start  |  Length  | Start sector | End sector
    ---------------------------------------------------------
        1  |  0:00.00 |  5:46.37 |         0    |    25986
        2  |  5:46.37 |  4:47.13 |     25987    |    47524
        3  | 10:33.50 |  5:57.16 |     47525    |    74315
        4  | 16:30.66 |  6:11.51 |     74316    |   102191
        5  | 22:42.42 |  4:44.55 |    102192    |   123546
        6  | 27:27.22 |  5:58.63 |    123547    |   150459
        7  | 33:26.10 |  6:03.71 |    150460    |   177755
        8  | 39:30.06 |  3:40.21 |    177756    |   194276
        9  | 43:10.27 |  4:27.45 |    194277    |   214346
       10  | 47:37.72 |  3:26.06 |    214347    |   229802

Track  1

     Filename D:\_EAC\Jessica Williams - And Then, There's This! (1990) [FLAC] {CDSOL-6381}\01 - Bemsha Swing.wav

     Pre-gap length  0:00:02.00

     Peak level 97.3 %
     Extraction speed 1.2 X
     Track quality 100.0 %
     Test CRC 64ACD9F5
     Copy CRC 64ACD9F5
     Accurately ripped (confidence 1)  [90744AEB]  (AR v2)
     Copy OK

Track  2

     Filename D:\_EAC\Jessica Williams - And Then, There's This! (1990) [FLAC] {CDSOL-6381}\02 - ... And Then, There's This!.wav

     Peak level 97.3 %
     Extraction speed 1.2 X
     Track quality 99.9 %
     Test CRC 1E17B5D0
     Copy CRC 1E17B5D0
     Accurately ripped (confidence 1)  [C01ACA24]  (AR v2)
     Copy OK

Track  3

     Filename D:\_EAC\Jessica Williams - And Then, There's This! (1990) [FLAC] {CDSOL-6381}\03 - All Alone.wav

     Peak level 97.3 %
     Extraction speed 1.4 X
     Track quality 99.9 %
     Test CRC 8A10A95A
     Copy CRC 8A10A95A
     Accurately ripped (confidence 1)  [2153C404]  (AR v2)
     Copy OK

Track  4

     Filename D:\_EAC\Jessica Williams - And Then, There's This! (1990) [FLAC] {CDSOL-6381}\04 - Nichol's Bag.wav

     Peak level 97.3 %
     Extraction speed 1.7 X
     Track quality 100.0 %
     Test CRC E784F9A1
     Copy CRC E784F9A1
     Accurately ripped (confidence 1)  [840399D2]  (AR v2)
     Copy OK

Track  5

     Filename D:\_EAC\Jessica Williams - And Then, There's This! (1990) [FLAC] {CDSOL-6381}\05 - The Child Within.wav

     Peak level 97.3 %
     Extraction speed 1.8 X
     Track quality 100.0 %
     Test CRC 018EEDF0
     Copy CRC 018EEDF0
     Accurately ripped (confidence 1)  [330469EE]  (AR v2)
     Copy OK

Track  6

     Filename D:\_EAC\Jessica Williams - And Then, There's This! (1990) [FLAC] {CDSOL-6381}\06 - Elaine.wav

     Peak level 97.3 %
     Extraction speed 1.9 X
     Track quality 100.0 %
     Test CRC 5C37B2C5
     Copy CRC 5C37B2C5
     Accurately ripped (confidence 1)  [43BB862F]  (AR v2)
     Copy OK

Track  7

     Filename D:\_EAC\Jessica Williams - And Then, There's This! (1990) [FLAC] {CDSOL-6381}\07 - The House That Rouse Built.wav

     Peak level 97.3 %
     Extraction speed 2.1 X
     Track quality 100.0 %
     Test CRC D8F1CE0E
     Copy CRC D8F1CE0E
     Accurately ripped (confidence 1)  [C5ED0002]  (AR v2)
     Copy OK

Track  8

     Filename D:\_EAC\Jessica Williams - And Then, There's This! (1990) [FLAC] {CDSOL-6381}\08 - Newk's Fluke.wav

     Peak level 97.3 %
     Extraction speed 2.0 X
     Track quality 100.0 %
     Test CRC E29F424E
     Copy CRC E29F424E
     Accurately ripped (confidence 1)  [75D0B33D]  (AR v2)
     Copy OK

Track  9

     Filename D:\_EAC\Jessica Williams - And Then, There's This! (1990) [FLAC] {CDSOL-6381}\09 - Swanee.wav

     Peak level 97.3 %
     Extraction speed 1.9 X
     Track quality 99.9 %
     Test CRC AEAF1AEB
     Copy CRC AEAF1AEB
     Accurately ripped (confidence 1)  [461B62F3]  (AR v2)
     Copy OK

Track 10

     Filename D:\_EAC\Jessica Williams - And Then, There's This! (1990) [FLAC] {CDSOL-6381}\10 - I Mean You.wav

     Peak level 97.3 %
     Extraction speed 2.2 X
     Track quality 100.0 %
     Test CRC 48034B4C
     Copy CRC 48034B4C
     Accurately ripped (confidence 1)  [8E9D9082]  (AR v2)
     Copy OK

All tracks accurately ripped

No errors occurred

End of status report

==== Log checksum C298B8D523044F01DE9B8D80FFE7FFD0EF37E328B30FDD02F007718406B7A34F ====

Cue Sheet (.cue):

Код:

REM GENRE Jazz
REM DATE 1990
REM DISCID 970BF80A
REM COMMENT "ExactAudioCopy v1.1"
PERFORMER "Jessica Williams"
TITLE "'... And Then, There's This!'"
FILE "01 - Bemsha Swing.wav" WAVE
  TRACK 01 AUDIO
    TITLE "Bemsha Swing"
    PERFORMER "Jessica Williams"
    FLAGS DCP
    INDEX 01 00:00:00
FILE "02 - ... And Then, There's This!.wav" WAVE
  TRACK 02 AUDIO
    TITLE "... And Then, There's This!"
    PERFORMER "Jessica Williams"
    FLAGS DCP
    INDEX 01 00:00:00
FILE "03 - All Alone.wav" WAVE
  TRACK 03 AUDIO
    TITLE "All Alone"
    PERFORMER "Jessica Williams"
    FLAGS DCP
    INDEX 01 00:00:00
FILE "04 - Nichol's Bag.wav" WAVE
  TRACK 04 AUDIO
    TITLE "Nichol's Bag"
    PERFORMER "Jessica Williams"
    FLAGS DCP
    INDEX 01 00:00:00
FILE "05 - The Child Within.wav" WAVE
  TRACK 05 AUDIO
    TITLE "The Child Within"
    PERFORMER "Jessica Williams"
    FLAGS DCP
    INDEX 01 00:00:00
FILE "06 - Elaine.wav" WAVE
  TRACK 06 AUDIO
    TITLE "Elaine"
    PERFORMER "Jessica Williams"
    FLAGS DCP
    INDEX 01 00:00:00
FILE "07 - The House That Rouse Built.wav" WAVE
  TRACK 07 AUDIO
    TITLE "The House That Rouse Built"
    PERFORMER "Jessica Williams"
    FLAGS DCP
    INDEX 01 00:00:00
FILE "08 - Newk's Fluke.wav" WAVE
  TRACK 08 AUDIO
    TITLE "Newk's Fluke"
    PERFORMER "Jessica Williams"
    FLAGS DCP
    INDEX 01 00:00:00
FILE "09 - Swanee.wav" WAVE
  TRACK 09 AUDIO
    TITLE "Swanee"
    PERFORMER "Jessica Williams"
    FLAGS DCP
    INDEX 01 00:00:00
FILE "10 - I Mean You.wav" WAVE
  TRACK 10 AUDIO
    TITLE "I Mean You"
    PERFORMER "Jessica Williams"
    FLAGS DCP
    INDEX 01 00:00:00

Отчёт auCDtect Task manager:

Код:

-----------------------

DON'T MODIFY THIS FILE

-----------------------

PERFORMER: auCDtect Task Manager, ver. 1.6.0 RC1 build 1.6.0.1
Copyright (c) 2008-2010 y-soft. All rights reserved
http://y-soft.org

ANALYZER: auCDtect: CD records authenticity detector, version 0.8.2
Copyright (c) 2004 Oleg Berngardt. All rights reserved.
Copyright (c) 2004 Alexander Djourik. All rights reserved.

FILE: 10 - I Mean You.flac
  Size: 17942575 Hash: 85C3C4985EE5EB67DD7F87E6554D7ED3 Accuracy: -m0
  Conclusion: CDDA 99%
  Signature: 281B9CD69BA7B1696C7579A74CA4AF884F5EB925
FILE: 09 - Swanee.flac
  Size: 26500808 Hash: 8E5E875579DA7FAF0EDF42446F52CEDF Accuracy: -m0
  Conclusion: CDDA 99%
  Signature: 1DCAACAA862FD60EAB007E8D8680ED7C3AE898DC
FILE: 08 - Newk's Fluke.flac
  Size: 18508879 Hash: 7BF24BDFA4991142690D15CE4D5A267A Accuracy: -m0
  Conclusion: CDDA 100%
  Signature: 7D357AF7EDD2FF09E1BDD0CADEF7EF14B421523C
FILE: 07 - The House That Rouse Built.flac
  Size: 38949569 Hash: 664C5F7A5780A000A5E0282A034D2634 Accuracy: -m0
  Conclusion: CDDA 100%
  Signature: 2FF0D726B2B7B15A4C11A80CA58AD4D524025210
FILE: 06 - Elaine.flac
  Size: 34717187 Hash: 5C44BA5082345867B31C6EBAA8EE7458 Accuracy: -m0
  Conclusion: CDDA 100%
  Signature: 51EF3B2E3684D80531C92A65843D417EF1F75026
FILE: 05 - The Child Within.flac
  Size: 29962299 Hash: FF48F7E81355BEE9729DADA256BF28EA Accuracy: -m0
  Conclusion: CDDA 100%
  Signature: 03149D5DEF99DD7EFAB8D24012AF071A698EDC92
FILE: 04 - Nichol's Bag.flac
  Size: 40376643 Hash: 6826D6E49882D1F8DC38BC60488F7B84 Accuracy: -m0
  Conclusion: CDDA 100%
  Signature: 3D003FB05753CEAEBC7235423978AF993CCE93E0
FILE: 03 - All Alone.flac
  Size: 34907190 Hash: F5B9D74456A9738A29B4842A7B3DD31E Accuracy: -m0
  Conclusion: CDDA 100%
  Signature: 04A69D1C80CA1625E7DF7B03F4536B3DBAD41731
FILE: 02 - ... And Then, There's This!.flac
  Size: 32019846 Hash: EBAD05A4BF91FA913AAA70A6B2045467 Accuracy: -m0
  Conclusion: MPEG 73%
  Signature: 68CABC8787C9568BDEE6D4917BD138CC7A144EA0
FILE: 01 - Bemsha Swing.flac
  Size: 38911611 Hash: 3EF4607F4286C0D7774896FED9998BBB Accuracy: -m0
  Conclusion: CDDA 85%
  Signature: 5A35E33D845334D2FDDA8D4CE54AB2E7668E86B0

Спектрограмма:



Состав

Jessica Williams - piano
John Wiitala - bass
Kenny Wollesen - drums
Детали торрента:
Название:Jessica Williams - ‘… And Then, There's This!’ (1990) Remaster, 2015, Solid Records[FLAC|Lossless|tracks + .cue] <Post-Bop, Piano Jazz>
Дата добавления:01 Авг 2016 10:06:43
Размер:319 MB
Раздают:
Качают:0
Форум:Jazz (Lossless)

All rights reserved © 2015-2019