TORRENTS45.XYZ

Скачать Carla Cook - Dem Bones (2001) [FLAC|Lossless|image + .cue] <Vocal Jazz>


Carla Cook - Dem Bones (2001)
Год: 2001
Жанр: Vocal Jazz
Издание: MAXJAZZ - MXJ 111
Продолжительность: 01:00:30
Источник (релизер): HQShare
Кодек: FLAC
Битрейт: Lossless
Тип рипа: image + .cue

Треклист:
01. The More I See You (4:53)
02. Like A Lover (6:42)
03. Oh Gee (4:13)
04. Dem Bones (6:55)
05. Just A Sittin' And A Rockin' (4:50)
06. Ode To Billie Joe (4:36)
07. Someone To Light Up My Life (5:45)
08. For The Elders (7:17)
09. Come, Ye Disconsolate (6:42)
10. Better Than Anything (5:00)
11. A Lover's Lullaby (3:37)

Дополнительная информация:

Carla Cook - vo
Craig Harris - tb
Fred Wesley - tb
Tyrone Jefferson - tb
Cyrus Chestnut - p, el-p, org
James Genus - b
Billy Kilson - d
Jeff Haynes - perc

Отчёт EAC:

Код:

Exact Audio Copy V0.99 prebeta 4 from 23. January 2008

EAC extraction logfile from 7. August 2009, 7:24

Carla Cook / Dem Bones

Used drive  : AOPEN   8X8 DVD Dual APP   Adapter: 0  ID: 0

Read mode               : Secure
Utilize accurate stream : Yes
Defeat audio cache      : Yes
Make use of C2 pointers : No

Read offset correction                      : 48
Overread into Lead-In and Lead-Out          : No
Fill up missing offset samples with silence : Yes
Delete leading and trailing silent blocks   : No
Null samples used in CRC calculations       : Yes
Used interface                              : Installed external ASPI interface

Used output format : Internal WAV Routines
Sample format      : 44.100 Hz; 16 Bit; Stereo

TOC of the extracted CD

     Track |   Start  |  Length  | Start sector | End sector
    ---------------------------------------------------------
        1  |  0:00.00 |  4:53.06 |         0    |    21980
        2  |  4:53.06 |  6:42.11 |     21981    |    52141
        3  | 11:35.17 |  4:12.38 |     52142    |    71079
        4  | 15:47.55 |  6:55.08 |     71080    |   102212
        5  | 22:42.63 |  4:50.04 |    102213    |   123966
        6  | 27:32.67 |  4:35.56 |    123967    |   144647
        7  | 32:08.48 |  5:44.46 |    144648    |   170493
        8  | 37:53.19 |  7:17.11 |    170494    |   203279
        9  | 45:10.30 |  6:42.34 |    203280    |   233463
       10  | 51:52.64 |  4:59.71 |    233464    |   255959
       11  | 56:52.60 |  3:36.73 |    255960    |   272232

Range status and errors

Selected range

     Filename E:\goods\Carla Cook - Dem Bones (2001).wav

     Peak level 99.2 %
     Range quality 99.9 %
     Copy CRC 873DF9CD
     Copy OK

No errors occurred

AccurateRip summary

Track  1  accurately ripped (confidence 3)  [D58FF20B]
Track  2  accurately ripped (confidence 3)  [74F411B4]
Track  3  accurately ripped (confidence 3)  [32F3AD9D]
Track  4  accurately ripped (confidence 3)  [419EE9A4]
Track  5  accurately ripped (confidence 3)  [9837BD52]
Track  6  accurately ripped (confidence 3)  [31B631CC]
Track  7  accurately ripped (confidence 3)  [A84492DA]
Track  8  accurately ripped (confidence 3)  [7D229A75]
Track  9  accurately ripped (confidence 3)  [C4D2D265]
Track 10  accurately ripped (confidence 3)  [D92F643D]
Track 11  accurately ripped (confidence 3)  [5025C3F0]

All tracks accurately ripped

End of status report

Cue Sheet (.cue):

Код:

REM GENRE "Vocal Jazz"
REM DATE 2001
REM DISCID 9A0E2D0B
REM COMMENT "ExactAudioCopy v0.99pb4"
PERFORMER "Carla Cook"
TITLE "Dem Bones"
FILE "Carla Cook - Dem Bones.flac" WAVE
  TRACK 01 AUDIO
    TITLE "The More I See You"
    PERFORMER "Carla Cook"
    INDEX 01 00:00:00
  TRACK 02 AUDIO
    TITLE "Like A Lover"
    PERFORMER "Carla Cook"
    INDEX 01 04:53:06
  TRACK 03 AUDIO
    TITLE "Oh Gee"
    PERFORMER "Carla Cook"
    INDEX 01 11:35:17
  TRACK 04 AUDIO
    TITLE "Dem Bones"
    PERFORMER "Carla Cook"
    INDEX 01 15:47:55
  TRACK 05 AUDIO
    TITLE "Just A Sittin' And A Rockin'"
    PERFORMER "Carla Cook"
    INDEX 01 22:42:63
  TRACK 06 AUDIO
    TITLE "Ode To Billie Joe"
    PERFORMER "Carla Cook"
    INDEX 01 27:32:67
  TRACK 07 AUDIO
    TITLE "Someone To Light Up My Life"
    PERFORMER "Carla Cook"
    INDEX 01 32:08:48
  TRACK 08 AUDIO
    TITLE "For The Elders"
    PERFORMER "Carla Cook"
    INDEX 01 37:53:19
  TRACK 09 AUDIO
    TITLE "Come, Ye Disconsolate"
    PERFORMER "Carla Cook"
    INDEX 01 45:10:30
  TRACK 10 AUDIO
    TITLE "Better Than Anything"
    PERFORMER "Carla Cook"
    INDEX 01 51:52:64
  TRACK 11 AUDIO
    TITLE "A Lover's Lullaby"
    PERFORMER "Carla Cook"
    INDEX 01 56:52:60

Отчёт auCDtect Task manager:

Код:

-----------------------

DON'T MODIFY THIS FILE

-----------------------

PERFORMER: auCDtect Task Manager, ver. 1.6.0 RC1 build 1.6.0.1
Copyright (c) 2008-2010 y-soft. All rights reserved
http://y-soft.org

ANALYZER: auCDtect: CD records authenticity detector, version 0.8.2
Copyright (c) 2004 Oleg Berngardt. All rights reserved.
Copyright (c) 2004 Alexander Djourik. All rights reserved.

FILE: Carla Cook - Dem Bones.flac
  Size: 335412151 Hash: AF2E7C9DAE3E17986EE9536A3C210F19 Accuracy: -m0
  Conclusion: CDDA 100%
  Signature: B33306C0DF40A625DAF598BEC22480194E836CFA
Детали торрента:
Название:Carla Cook - Dem Bones (2001) [FLAC|Lossless|image + .cue] <Vocal Jazz>
Дата добавления:22 Июл 2016 20:08:29
Размер:321 MB
Раздают:
Качают:0
Форум:Jazz (Lossless)

All rights reserved © 2015-2019