TORRENTS45.XYZ

Скачать VA - When the Saints Go Marching in: Jazz Greatest (2005) [FLAC|Lossless|tracks + .cue] <Jazz>


VA - When the Saints Go Marching in: Jazz Greatest (2005)
Год: 2005
Жанр: Jazz
Издание: This compilation - 21026-2
Продолжительность: 00:52:25

Кодек: FLAC
Битрейт: Lossless
Тип рипа: tracks + .cue
Источник (релизер): tifon
Наличие сканов: Да, полные
[color=#transparent]Описание:[/color]Название диска происходит от известнейшей композиции впервые исполненной Louis Armstrong - When The Saints Go Marching In (Когда святые маршируют). Впоследствии практически каждый джазист почитал своим долгом перепеть (и переиграть) эту, ставшую классикой, композицию. Ну и, конечно, только от одного перечисления имен тех, кто представлен на этом сборнике может у любителей джаза просто крышу снести. А для тех, кто только знакомится с жанром джаза, это будет хороший случай послушать всех классиков разом (практически все они представлены отдельными альбомами и сборниками в этом джазовом разделе нашего трекера). Так что, если что понравится - милости просим приобщаться!
Треклист:
01. Louis Armstrong - When The Saints Go Marching In (3:12)
02. Duke Ellington - The Mooche (5:26)
03. Benny Goodman - King Porter Stomp (3:08)
04. Nat King Cole - It's Only A Paper Moon (1:59)
05. Count Basie - Something New (2:16)
06. Artie Shaw - My Blue Heaven (2:35)
07. Charlie Parker - How High The Moon (2:52)
08. Louis Armstrong - Indiana (4:22)
09. Ella Fitzgerald With Chick Webb Orchestra - A Tisket A Tasket (2:36)
10. Cannonball Adderly - Cannon Blues (7:00)

Продолжение треклиста:

Image11. Charlie Barnet - I Can't Remember (2:55)
12. Lena Horne - At Long Last (2:46)
13. Benny Goodman - Bugle Call Rag (2:38)
14. Count Basie - I Struck A Match In The Dark (3:04)
15. Duke Ellington - Caravan (2:49)
16. Artie Shaw - My Heart Stood Still (2:46)

Отчёт EAC:

Код:

Exact Audio Copy V1.0 beta 3 from 29. August 2011

EAC extraction logfile from 28. August 2015, 14:04

Various Artists / Jazz Greatest - When The Saints Go Marching In

Used drive  : TSSTcorpCDDVDW SH-S202J   Adapter: 0  ID: 0

Read mode               : Secure
Utilize accurate stream : Yes
Defeat audio cache      : Yes
Make use of C2 pointers : No

Read offset correction                      : 6
Overread into Lead-In and Lead-Out          : No
Fill up missing offset samples with silence : Yes
Delete leading and trailing silent blocks   : No
Null samples used in CRC calculations       : Yes
Used interface                              : Native Win32 interface for Win NT & 2000
Gap handling                                : Appended to previous track

Used output format              : User Defined Encoder
Selected bitrate                : 768 kBit/s
Quality                         : High
Add ID3 tag                     : No
Command line compressor         : C:\Program Files\Exact Audio Copy\FLAC\FLAC.EXE
Additional command line options : -6 -V -T "ARTIST=%artist%" -T "TITLE=%title%" -T "ALBUM=%albumtitle%" -T "DATE=%year%" -T "TRACKNUMBER=%tracknr%" -T "GENRE=%genre%" -T "COMMENT=%comment%" -T "BAND=%albuminterpret%" -T "ALBUMARTIST=%albuminterpret%" -T "COMPOSER=%composer%" %haslyrics%--tag-from-file=LYRICS="%lyricsfile%"%haslyrics% -T "DISCNUMBER=%cdnumber%" -T "TOTALDISCS=%totalcds%" -T "TOTALTRACKS=%numtracks%" %hascover%--picture="%coverfile%"%hascover% %source% -o %dest%

TOC of the extracted CD

     Track |   Start  |  Length  | Start sector | End sector
    ---------------------------------------------------------
        1  |  0:00.01 |  3:11.60 |         1    |    14385
        2  |  3:11.61 |  5:25.65 |     14386    |    38825
        3  |  8:37.51 |  3:08.22 |     38826    |    52947
        4  | 11:45.73 |  1:58.61 |     52948    |    61858
        5  | 13:44.59 |  2:16.04 |     61859    |    72062
        6  | 16:00.63 |  2:35.33 |     72063    |    83720
        7  | 18:36.21 |  2:51.47 |     83721    |    96592
        8  | 21:27.68 |  4:22.11 |     96593    |   116253
        9  | 25:50.04 |  2:36.27 |    116254    |   127980
       10  | 28:26.31 |  7:00.20 |    127981    |   159500
       11  | 35:26.51 |  2:55.08 |    159501    |   172633
       12  | 38:21.59 |  2:46.10 |    172634    |   185093
       13  | 41:07.69 |  2:38.26 |    185094    |   196969
       14  | 43:46.20 |  3:04.03 |    196970    |   210772
       15  | 46:50.23 |  2:48.43 |    210773    |   223415
       16  | 49:38.66 |  2:45.52 |    223416    |   235842

Track  1

     Filename G:\EAC\VA - Jazz Greatest - (2005) - [FLAC] - [TFM]\01. When The Saints Go Marching In.wav

     Pre-gap length  0:00:02.01

     Peak level 84.9 %
     Extraction speed 3.7 X
     Track quality 100.0 %
     Test CRC 525BE79E
     Copy CRC 525BE79E
     Accurately ripped (confidence 3)  [FC4474DD]  (AR v1)
     Copy OK

Track  2

     Filename G:\EAC\VA - Jazz Greatest - (2005) - [FLAC] - [TFM]\02. The Mooche.wav

     Peak level 68.9 %
     Extraction speed 4.3 X
     Track quality 100.0 %
     Test CRC CFADB31D
     Copy CRC CFADB31D
     Accurately ripped (confidence 3)  [8376A201]  (AR v1)
     Copy OK

Track  3

     Filename G:\EAC\VA - Jazz Greatest - (2005) - [FLAC] - [TFM]\03. King Porter Stomp.wav

     Peak level 81.9 %
     Extraction speed 4.3 X
     Track quality 100.0 %
     Test CRC 23CFC682
     Copy CRC 23CFC682
     Accurately ripped (confidence 3)  [047A2125]  (AR v1)
     Copy OK

Track  4

     Filename G:\EAC\VA - Jazz Greatest - (2005) - [FLAC] - [TFM]\04. It's Only A Paper Moon.wav

     Peak level 67.6 %
     Extraction speed 4.2 X
     Track quality 100.0 %
     Test CRC D89FCB8A
     Copy CRC D89FCB8A
     Accurately ripped (confidence 3)  [C23033AF]  (AR v1)
     Copy OK

Track  5

     Filename G:\EAC\VA - Jazz Greatest - (2005) - [FLAC] - [TFM]\05. Something New.wav

     Peak level 55.5 %
     Extraction speed 4.4 X
     Track quality 100.0 %
     Test CRC 176F155E
     Copy CRC 176F155E
     Accurately ripped (confidence 3)  [F4041594]  (AR v1)
     Copy OK

Track  6

     Filename G:\EAC\VA - Jazz Greatest - (2005) - [FLAC] - [TFM]\06. My Blue Heaven.wav

     Peak level 53.3 %
     Extraction speed 4.7 X
     Track quality 100.0 %
     Test CRC 29B9F3B0
     Copy CRC 29B9F3B0
     Accurately ripped (confidence 3)  [E937DF81]  (AR v1)
     Copy OK

Track  7

     Filename G:\EAC\VA - Jazz Greatest - (2005) - [FLAC] - [TFM]\07. How High The Moon.wav

     Peak level 50.1 %
     Extraction speed 3.8 X
     Track quality 99.9 %
     Test CRC 7D6F1968
     Copy CRC 7D6F1968
     Accurately ripped (confidence 3)  [ACF34A94]  (AR v1)
     Copy OK

Track  8

     Filename G:\EAC\VA - Jazz Greatest - (2005) - [FLAC] - [TFM]\08. Indiana.wav

     Peak level 78.4 %
     Extraction speed 5.3 X
     Track quality 100.0 %
     Test CRC 044F7FAA
     Copy CRC 044F7FAA
     Accurately ripped (confidence 3)  [345E4C59]  (AR v1)
     Copy OK

Track  9

     Filename G:\EAC\VA - Jazz Greatest - (2005) - [FLAC] - [TFM]\09. A Tisket A Tasket.wav

     Peak level 83.5 %
     Extraction speed 4.0 X
     Track quality 99.9 %
     Test CRC 9B9F2E34
     Copy CRC 9B9F2E34
     Accurately ripped (confidence 3)  [94ECE142]  (AR v1)
     Copy OK

Track 10

     Filename G:\EAC\VA - Jazz Greatest - (2005) - [FLAC] - [TFM]\10. Cannon Blues.wav

     Peak level 57.1 %
     Extraction speed 5.3 X
     Track quality 99.9 %
     Test CRC 760CF6C5
     Copy CRC 760CF6C5
     Accurately ripped (confidence 3)  [DC1AF9E7]  (AR v1)
     Copy OK

Track 11

     Filename G:\EAC\VA - Jazz Greatest - (2005) - [FLAC] - [TFM]\11. I Can't Remember.wav

     Peak level 55.4 %
     Extraction speed 5.6 X
     Track quality 100.0 %
     Test CRC 2C884C16
     Copy CRC 2C884C16
     Accurately ripped (confidence 3)  [07F2AA6E]  (AR v1)
     Copy OK

Track 12

     Filename G:\EAC\VA - Jazz Greatest - (2005) - [FLAC] - [TFM]\12. At Long Last.wav

     Peak level 64.0 %
     Extraction speed 5.7 X
     Track quality 100.0 %
     Test CRC D4A02FF9
     Copy CRC D4A02FF9
     Accurately ripped (confidence 3)  [606D1A9C]  (AR v1)
     Copy OK

Track 13

     Filename G:\EAC\VA - Jazz Greatest - (2005) - [FLAC] - [TFM]\13. Bugle Call Rag.wav

     Peak level 48.9 %
     Extraction speed 4.5 X
     Track quality 99.9 %
     Test CRC E19C3F2F
     Copy CRC E19C3F2F
     Accurately ripped (confidence 3)  [897B4BE2]  (AR v1)
     Copy OK

Track 14

     Filename G:\EAC\VA - Jazz Greatest - (2005) - [FLAC] - [TFM]\14. I Struck A Match In The Dark.wav

     Peak level 53.6 %
     Extraction speed 5.9 X
     Track quality 100.0 %
     Test CRC 8A0FBC19
     Copy CRC 8A0FBC19
     Accurately ripped (confidence 3)  [16AB6646]  (AR v1)
     Copy OK

Track 15

     Filename G:\EAC\VA - Jazz Greatest - (2005) - [FLAC] - [TFM]\15. Caravan.wav

     Peak level 54.2 %
     Extraction speed 5.9 X
     Track quality 100.0 %
     Test CRC 85C7C725
     Copy CRC 85C7C725
     Accurately ripped (confidence 3)  [B17BFFB1]  (AR v1)
     Copy OK

Track 16

     Filename G:\EAC\VA - Jazz Greatest - (2005) - [FLAC] - [TFM]\16. My Heart Stood Still.wav

     Peak level 55.7 %
     Extraction speed 4.8 X
     Track quality 99.9 %
     Test CRC 64E42836
     Copy CRC 64E42836
     Accurately ripped (confidence 3)  [04A43745]  (AR v1)
     Copy OK

All tracks accurately ripped

No errors occurred

End of status report

==== Log checksum 491A2F23FA60A5BA228AB2D973191023DCB763B68A106E87429CEBF6DA90B0C6 ====

Cue Sheet (.cue):

Код:

REM GENRE Jazz
REM DATE 2005
REM DISCID E50C4810
REM COMMENT "ExactAudioCopy v1.0b3"
PERFORMER "Various Artists"
TITLE "Jazz Greatest - When The Saints Go Marching In  "
FILE "01. When The Saints Go Marching In.wav" WAVE
  TRACK 01 AUDIO
    TITLE "When The Saints Go Marching In"
    PERFORMER "Louis Armstrong"
    PREGAP 00:00:01
    INDEX 01 00:00:00
FILE "02. The Mooche.wav" WAVE
  TRACK 02 AUDIO
    TITLE "The Mooche"
    PERFORMER "Duke Ellington"
    INDEX 01 00:00:00
FILE "03. King Porter Stomp.wav" WAVE
  TRACK 03 AUDIO
    TITLE "King Porter Stomp"
    PERFORMER "Benny Goodman"
    INDEX 01 00:00:00
FILE "04. It's Only A Paper Moon.wav" WAVE
  TRACK 04 AUDIO
    TITLE "It's Only A Paper Moon"
    PERFORMER "Nat King Cole"
    INDEX 01 00:00:00
FILE "05. Something New.wav" WAVE
  TRACK 05 AUDIO
    TITLE "Something New"
    PERFORMER "Count Basie"
    INDEX 01 00:00:00
FILE "06. My Blue Heaven.wav" WAVE
  TRACK 06 AUDIO
    TITLE "My Blue Heaven"
    PERFORMER "Artie Shaw"
    INDEX 01 00:00:00
FILE "07. How High The Moon.wav" WAVE
  TRACK 07 AUDIO
    TITLE "How High The Moon"
    PERFORMER "Charlie Parker"
    INDEX 01 00:00:00
FILE "08. Indiana.wav" WAVE
  TRACK 08 AUDIO
    TITLE "Indiana"
    PERFORMER "Louis Armstrong"
    INDEX 01 00:00:00
FILE "09. A Tisket A Tasket.wav" WAVE
  TRACK 09 AUDIO
    TITLE "A Tisket A Tasket"
    PERFORMER "Ella Fitzgerald With Chick Webb Orchestra"
    INDEX 01 00:00:00
FILE "10. Cannon Blues.wav" WAVE
  TRACK 10 AUDIO
    TITLE "Cannon Blues"
    PERFORMER "Cannonball Adderly"
    INDEX 01 00:00:00
FILE "11. I Can't Remember.wav" WAVE
  TRACK 11 AUDIO
    TITLE "I Can't Remember"
    PERFORMER "Charlie Barnet"
    INDEX 01 00:00:00
FILE "12. At Long Last.wav" WAVE
  TRACK 12 AUDIO
    TITLE "At Long Last"
    PERFORMER "Lena Horne"
    INDEX 01 00:00:00
FILE "13. Bugle Call Rag.wav" WAVE
  TRACK 13 AUDIO
    TITLE "Bugle Call Rag"
    PERFORMER "Benny Goodman"
    INDEX 01 00:00:00
FILE "14. I Struck A Match In The Dark.wav" WAVE
  TRACK 14 AUDIO
    TITLE "I Struck A Match In The Dark"
    PERFORMER "Count Basie"
    INDEX 01 00:00:00
FILE "15. Caravan.wav" WAVE
  TRACK 15 AUDIO
    TITLE "Caravan"
    PERFORMER "Duke Ellington"
    INDEX 01 00:00:00
FILE "16. My Heart Stood Still.wav" WAVE
  TRACK 16 AUDIO
    TITLE "My Heart Stood Still"
    PERFORMER "Artie Shaw"
    INDEX 01 00:00:00

Отчёт auCDtect Task manager:

Код:

-----------------------

DON'T MODIFY THIS FILE

-----------------------

PERFORMER: auCDtect Task Manager, ver. 1.6.0 RC1 build 1.6.0.1
Copyright (c) 2008-2010 y-soft. All rights reserved
http://y-soft.org

ANALYZER: auCDtect: CD records authenticity detector, version 0.8.2
Copyright (c) 2004 Oleg Berngardt. All rights reserved.
Copyright (c) 2004 Alexander Djourik. All rights reserved.

FILE: 16. My Heart Stood Still.flac
  Size: 11906813 Hash: 6BD87CF69FB961ADFF95465DC5A4F4BF Accuracy: -m0
  Conclusion: CDDA 54%
  Signature: 282BCB7E9DE081FDF6DA435064149784B419BA33
FILE: 15. Caravan.flac
  Size: 8148404 Hash: CEBA39073AC08744D3196A879B15EF43 Accuracy: -m0
  Conclusion: ???
  Signature: 1A1495217458E5FD64A01EBA50320E2F57791FBC
FILE: 14. I Struck A Match In The Dark.flac
  Size: 8880281 Hash: 72AF011D35563A2B5C55E8E7837678E2 Accuracy: -m0
  Conclusion: MPEG 100%
  Signature: 7EC9900255AD0C2552AE629BBDA3814ED45AE862
FILE: 13. Bugle Call Rag.flac
  Size: 7519650 Hash: E10024868CF502077A6D7947B824D679 Accuracy: -m0
  Conclusion: MPEG 100%
  Signature: D1B1C0979CE4F91F716C687B24F261375831FDAC
FILE: 12. At Long Last.flac
  Size: 7115476 Hash: 1A17190C148F3D5F503AA7A229099AF4 Accuracy: -m0
  Conclusion: ???
  Signature: 6A6DD371D419D19188340464EC7B84CE3CF23C1D
FILE: 11. I Can't Remember.flac
  Size: 10224664 Hash: C0407C74BA091821D55240A788FA6FD9 Accuracy: -m0
  Conclusion: CDDA 100%
  Signature: AE111708664E9C660BAE107BD4F7B41B6DD291F1
FILE: 10. Cannon Blues.flac
  Size: 27782636 Hash: B1F4BDD4C462ECF32304324BBA5AF09F Accuracy: -m0
  Conclusion: ???
  Signature: 5A4A68B6B7E21B147CFABB88194E66672990C910
FILE: 09. A Tisket A Tasket.flac
  Size: 9395660 Hash: 8F3A6BD1B3A8F782CA827E9F50776124 Accuracy: -m0
  Conclusion: CDDA 100%
  Signature: 86F464AC4B299F40C36A311E63172CCDC10A867A
FILE: 08. Indiana.flac
  Size: 22424863 Hash: 50E62D056EDAFB16BE1F01F52A2E4C61 Accuracy: -m0
  Conclusion: CDDA 100%
  Signature: FBBE814D66B8F6210D73B3175B4518DDC70EA52E
FILE: 07. How High The Moon.flac
  Size: 9101326 Hash: 092319B5FBC5C022AAED76A249D0A9B1 Accuracy: -m0
  Conclusion: ???
  Signature: FC78996E816F6DDDD1BD140262CF42655E0F60D3
FILE: 06. My Blue Heaven.flac
  Size: 8352558 Hash: 3A75BD778B2BD90936042C3C3D4C6CD8 Accuracy: -m0
  Conclusion: ???
  Signature: FADFDD661E03F5C8A2C747FEC1819713D18CB5DA
FILE: 05. Something New.flac
  Size: 7171151 Hash: 40B7A87C23C5546A96D7E3A76C309F1E Accuracy: -m0
  Conclusion: ???
  Signature: 8718D1680E6D36E102BA508DC7FFE9163613B27F
FILE: 04. It's Only A Paper Moon.flac
  Size: 5575101 Hash: 3A72155380FE46CDA106042E8D075B35 Accuracy: -m0
  Conclusion: ???
  Signature: E933B8BD98D326534A6187B53BE32E71D048A552
FILE: 03. King Porter Stomp.flac
  Size: 6775305 Hash: 07CD9F1396C119179D212369941BC711 Accuracy: -m0
  Conclusion: CDDA 100%
  Signature: 66EAF69930A55585D76898649A76614351258EAB
FILE: 02. The Mooche.flac
  Size: 16335250 Hash: 67122C07BBF6861521CF1FC0DE817133 Accuracy: -m0
  Conclusion: ???
  Signature: C60F17FDAE4DA184AA8A0A80AE706E0CABA74C5F
FILE: 01. When The Saints Go Marching In.flac
  Size: 15180594 Hash: D27E5427053960D6F335B6A62D263F61 Accuracy: -m0
  Conclusion: CDDA 99%
  Signature: 8020613E1BCF43381F367B5F9910B0D128EECC31

Спектрограмма:











Поглощение/вытеснение
Только с согласия релизера

gvm55

Детали торрента:
Название:VA - When the Saints Go Marching in: Jazz Greatest (2005) [FLAC|Lossless|tracks + .cue] <Jazz>
Дата добавления:21 Июл 2016 22:16:20
Размер:227 MB
Раздают:1
Качают:0
Форум:Jazz (Lossless)

All rights reserved © 2015-2019