TORRENTS45.XYZ

Скачать Cy Touff - His Octet & Quintet (1955) 1998, Pacific Jazz Records[FLAC|Lossless|tracks + .cue] <Mainstream Jazz, Cool>


Cy Touff - His Octet & Quintet (1955) 1998, Pacific Jazz Records
Год: 1998
Год записи: 1955
Жанр: Mainstream Jazz, Cool
Издание: Pacific Jazz Records - CDP 7243 4 93162 2 5
Продолжительность: 00:51:32

Кодек: FLAC (tracks+.cue)
Битрейт: Lossless
Источник (релизер): template
Страна-производитель диска: USA
Наличие сканов в содержимом раздачи: да

Треклист:

01.Keester Parade [07:53]
02.TNT [04:58]
03.What Am I Here For? [04:25]
04.Groover Wailin' [04:14]
05.Prez-Ence [05:28]
06.Half Past Jumping Time [03:53]
07.A Smooth One [07:01]
08.Primitive Cats [05:42]
09.It's Sand, Man [05:28]
10.A Smooth One (alternate take) [02:33]

Отчёт XLD:

Код:

X Lossless Decoder version 20151214 (149.1)

XLD extraction logfile from 2016-06-08 04:09:34 -0500

Cy Touff / Cy Touff, His Octet & Quintet

Used drive : MATSHITA DVD-R   UJ-8A8 (revision HB14)
Media type : Pressed CD

Ripper mode             : XLD Secure Ripper
Disable audio cache     : OK for the drive with a cache less than 1375KiB
Make use of C2 pointers : NO
Read offset correction  : 102
Max retry count         : 100
Gap status              : Analyzed, Appended (except HTOA)

TOC of the extracted CD
     Track |   Start  |  Length  | Start sector | End sector
    ---------------------------------------------------------
        1  | 00:00:00 | 07:52:72 |         0    |    35471
        2  | 07:52:72 | 04:57:58 |     35472    |    57804
        3  | 12:50:55 | 04:24:70 |     57805    |    77674
        4  | 17:15:50 | 04:13:17 |     77675    |    96666
        5  | 21:28:67 | 05:27:18 |     96667    |   121209
        6  | 26:56:10 | 03:52:65 |    121210    |   138674
        7  | 30:49:00 | 07:00:60 |    138675    |   170234
        8  | 37:49:60 | 05:41:15 |    170235    |   195824
        9  | 43:31:00 | 05:27:15 |    195825    |   220364
       10  | 48:58:15 | 02:32:70 |    220365    |   231834

AccurateRip Summary (DiscID: 001488e4-00a1f6f8-7e0c130a)
    Track 01 : OK (v1+v2, confidence 7/7)
    Track 02 : OK (v1+v2, confidence 7/7)
    Track 03 : OK (v1+v2, confidence 7/7)
    Track 04 : OK (v1+v2, confidence 7/7)
    Track 05 : OK (v1+v2, confidence 7/7)
    Track 06 : OK (v1+v2, confidence 7/7)
    Track 07 : OK (v1+v2, confidence 7/7)
    Track 08 : OK (v1+v2, confidence 7/7)
    Track 09 : OK (v1+v2, confidence 7/7)
    Track 10 : OK (v1+v2, confidence 7/7)
        ->All tracks accurately ripped.

All Tracks
    Album gain               : -4.53 dB
    Peak                     : 0.988556
    Statistics
        Read error                           : 0
        Jitter error (maybe fixed)           : 0
        Retry sector count                   : 0
        Damaged sector count                 : 0

Track 01
    Filename : /Users/jonahMBP/Music/XLD rips/Cy Touff - Cy Touff, His Octet & Quintet (1998) [FLAC]/01 Keester Parade.flac
    Pre-gap length : 00:02:00

    Track gain               : -4.62 dB
    Peak                     : 0.865540
    CRC32 hash (test run)    : 21DAC468
    CRC32 hash               : 21DAC468
    CRC32 hash (skip zero)   : C7AA09CF
    AccurateRip v1 signature : 3E40E33E
    AccurateRip v2 signature : 825B7EAC
        ->Accurately ripped (v1+v2, confidence 4+3/7)
    Statistics
        Read error                           : 0
        Jitter error (maybe fixed)           : 0
        Retry sector count                   : 0
        Damaged sector count                 : 0

Track 02
    Filename : /Users/jonahMBP/Music/XLD rips/Cy Touff - Cy Touff, His Octet & Quintet (1998) [FLAC]/02 Tnt.flac
    Pre-gap length : 00:02:20

    Track gain               : -6.30 dB
    Peak                     : 0.988556
    CRC32 hash (test run)    : E5761EE3
    CRC32 hash               : E5761EE3
    CRC32 hash (skip zero)   : E2021AB7
    AccurateRip v1 signature : 2CFAADB5
    AccurateRip v2 signature : DF3DF633
        ->Accurately ripped (v1+v2, confidence 4+3/7)
    Statistics
        Read error                           : 0
        Jitter error (maybe fixed)           : 0
        Retry sector count                   : 0
        Damaged sector count                 : 0

Track 03
    Filename : /Users/jonahMBP/Music/XLD rips/Cy Touff - Cy Touff, His Octet & Quintet (1998) [FLAC]/03 What Am I Here For?.flac
    Pre-gap length : 00:02:35

    Track gain               : -4.55 dB
    Peak                     : 0.885437
    CRC32 hash (test run)    : 22A1E571
    CRC32 hash               : 22A1E571
    CRC32 hash (skip zero)   : ABCB1BFA
    AccurateRip v1 signature : DB51536A
    AccurateRip v2 signature : 03052895
        ->Accurately ripped (v1+v2, confidence 4+3/7)
    Statistics
        Read error                           : 0
        Jitter error (maybe fixed)           : 0
        Retry sector count                   : 0
        Damaged sector count                 : 0

Track 04
    Filename : /Users/jonahMBP/Music/XLD rips/Cy Touff - Cy Touff, His Octet & Quintet (1998) [FLAC]/04 Groover Wailin'.flac
    Pre-gap length : 00:02:48

    Track gain               : -6.10 dB
    Peak                     : 0.957642
    CRC32 hash (test run)    : AE8BB2F7
    CRC32 hash               : AE8BB2F7
    CRC32 hash (skip zero)   : 987DAD7D
    AccurateRip v1 signature : 7A7DB92F
    AccurateRip v2 signature : 99CC43C9
        ->Accurately ripped (v1+v2, confidence 4+3/7)
    Statistics
        Read error                           : 0
        Jitter error (maybe fixed)           : 0
        Retry sector count                   : 0
        Damaged sector count                 : 0

Track 05
    Filename : /Users/jonahMBP/Music/XLD rips/Cy Touff - Cy Touff, His Octet & Quintet (1998) [FLAC]/05 Prez-Ence.flac
    Pre-gap length : 00:02:07

    Track gain               : -2.67 dB
    Peak                     : 0.834106
    CRC32 hash (test run)    : FB7153E5
    CRC32 hash               : FB7153E5
    CRC32 hash (skip zero)   : 1E8EE7EA
    AccurateRip v1 signature : 9462F9E2
    AccurateRip v2 signature : 49DBBD0A
        ->Accurately ripped (v1+v2, confidence 4+3/7)
    Statistics
        Read error                           : 0
        Jitter error (maybe fixed)           : 0
        Retry sector count                   : 0
        Damaged sector count                 : 0

Track 06
    Filename : /Users/jonahMBP/Music/XLD rips/Cy Touff - Cy Touff, His Octet & Quintet (1998) [FLAC]/06 Half Past Jumping Time.flac
    Pre-gap length : 00:02:13

    Track gain               : -3.34 dB
    Peak                     : 0.958221
    CRC32 hash (test run)    : 6E630ACB
    CRC32 hash               : 6E630ACB
    CRC32 hash (skip zero)   : 9FD62B39
    AccurateRip v1 signature : 3F1A7D2A
    AccurateRip v2 signature : 916DF625
        ->Accurately ripped (v1+v2, confidence 4+3/7)
    Statistics
        Read error                           : 0
        Jitter error (maybe fixed)           : 0
        Retry sector count                   : 0
        Damaged sector count                 : 0

Track 07
    Filename : /Users/jonahMBP/Music/XLD rips/Cy Touff - Cy Touff, His Octet & Quintet (1998) [FLAC]/07 A Smooth One.flac
    Pre-gap length : 00:01:68

    Track gain               : -2.64 dB
    Peak                     : 0.858521
    CRC32 hash (test run)    : 346689E8
    CRC32 hash               : 346689E8
    CRC32 hash (skip zero)   : 3C012708
    AccurateRip v1 signature : 30B33679
    AccurateRip v2 signature : 47EE5B9B
        ->Accurately ripped (v1+v2, confidence 4+3/7)
    Statistics
        Read error                           : 0
        Jitter error (maybe fixed)           : 0
        Retry sector count                   : 0
        Damaged sector count                 : 0

Track 08
    Filename : /Users/jonahMBP/Music/XLD rips/Cy Touff - Cy Touff, His Octet & Quintet (1998) [FLAC]/08 Primitive Cats.flac
    Pre-gap length : 00:01:48

    Track gain               : -4.21 dB
    Peak                     : 0.942841
    CRC32 hash (test run)    : 4336729F
    CRC32 hash               : 4336729F
    CRC32 hash (skip zero)   : C727ED3C
    AccurateRip v1 signature : 32A3863D
    AccurateRip v2 signature : 3F4E0B04
        ->Accurately ripped (v1+v2, confidence 4+3/7)
    Statistics
        Read error                           : 0
        Jitter error (maybe fixed)           : 0
        Retry sector count                   : 0
        Damaged sector count                 : 0

Track 09
    Filename : /Users/jonahMBP/Music/XLD rips/Cy Touff - Cy Touff, His Octet & Quintet (1998) [FLAC]/09 It's Sand, Man.flac
    Pre-gap length : 00:02:18

    Track gain               : -3.64 dB
    Peak                     : 0.988556
    CRC32 hash (test run)    : 4E4EB5B1
    CRC32 hash               : 4E4EB5B1
    CRC32 hash (skip zero)   : 89EE738A
    AccurateRip v1 signature : 154CD214
    AccurateRip v2 signature : 152E3EF2
        ->Accurately ripped (v1+v2, confidence 4+3/7)
    Statistics
        Read error                           : 0
        Jitter error (maybe fixed)           : 0
        Retry sector count                   : 0
        Damaged sector count                 : 0

Track 10
    Filename : /Users/jonahMBP/Music/XLD rips/Cy Touff - Cy Touff, His Octet & Quintet (1998) [FLAC]/10 A Smooth One (Alternative Take).flac
    Pre-gap length : 00:02:03

    Track gain               : -4.39 dB
    Peak                     : 0.910400
    CRC32 hash (test run)    : 446D8762
    CRC32 hash               : 446D8762
    CRC32 hash (skip zero)   : 4101DECA
    AccurateRip v1 signature : F74C040F
    AccurateRip v2 signature : 21F829EF
        ->Accurately ripped (v1+v2, confidence 4+3/7)
    Statistics
        Read error                           : 0
        Jitter error (maybe fixed)           : 0
        Retry sector count                   : 0
        Damaged sector count                 : 0

No errors occurred

End of status report

-----BEGIN XLD SIGNATURE-----
2FujzpP3RZRvBB6mFtHdB9jM7kVOsDmT9GdLZzn4N6fKP4rTnuvVvrpiPpQOr8_zLcJEB0XjM062ytwT0N1JfElRnFFhVQnEzbHSP_8
-----END XLD SIGNATURE-----

Cue Sheet (.cue):

Код:

TITLE "His Octet & Quintet"
PERFORMER "Cy Touff"
CATALOG 0724349316225
REM GENRE "Jazz"
REM DATE "1955"
REM DISCID 7E0C130A
REM REPLAYGAIN_ALBUM_GAIN -4.53 dB
REM REPLAYGAIN_ALBUM_PEAK 0.988556
FILE "01 - Keester Parade.flac" WAVE
  TRACK 01 AUDIO
    TITLE "Keester Parade"
    REM REPLAYGAIN_TRACK_GAIN -4.62 dB
    REM REPLAYGAIN_TRACK_PEAK 0.865540
    INDEX 01 00:00:00
  TRACK 02 AUDIO
    TITLE "TNT"
    REM REPLAYGAIN_TRACK_GAIN -6.30 dB
    REM REPLAYGAIN_TRACK_PEAK 0.988556
    INDEX 00 07:50:52
FILE "02 - TNT.flac" WAVE
    INDEX 01 00:00:00
  TRACK 03 AUDIO
    TITLE "What Am I Here For?"
    REM REPLAYGAIN_TRACK_GAIN -4.55 dB
    REM REPLAYGAIN_TRACK_PEAK 0.885437
    INDEX 00 04:55:23
FILE "03 - What Am I Here For.flac" WAVE
    INDEX 01 00:00:00
  TRACK 04 AUDIO
    TITLE "Groover Wailin'"
    REM REPLAYGAIN_TRACK_GAIN -6.10 dB
    REM REPLAYGAIN_TRACK_PEAK 0.957642
    INDEX 00 04:22:22
FILE "04 - Groover Wailin'.flac" WAVE
    INDEX 01 00:00:00
  TRACK 05 AUDIO
    TITLE "Prez-Ence"
    REM REPLAYGAIN_TRACK_GAIN -2.67 dB
    REM REPLAYGAIN_TRACK_PEAK 0.834106
    INDEX 00 04:11:10
FILE "05 - Prez-Ence.flac" WAVE
    INDEX 01 00:00:00
  TRACK 06 AUDIO
    TITLE "Half Past Jumping Time"
    REM REPLAYGAIN_TRACK_GAIN -3.34 dB
    REM REPLAYGAIN_TRACK_PEAK 0.958221
    INDEX 00 05:25:05
FILE "06 - Half Past Jumping Time.flac" WAVE
    INDEX 01 00:00:00
  TRACK 07 AUDIO
    TITLE "A Smooth One"
    REM REPLAYGAIN_TRACK_GAIN -2.64 dB
    REM REPLAYGAIN_TRACK_PEAK 0.858521
    INDEX 00 03:50:72
FILE "07 - A Smooth One.flac" WAVE
    INDEX 01 00:00:00
  TRACK 08 AUDIO
    TITLE "Primitive Cats"
    REM REPLAYGAIN_TRACK_GAIN -4.21 dB
    REM REPLAYGAIN_TRACK_PEAK 0.942841
    INDEX 00 06:59:12
FILE "08 - Primitive Cats.flac" WAVE
    INDEX 01 00:00:00
  TRACK 09 AUDIO
    TITLE "It's Sand, Man"
    REM REPLAYGAIN_TRACK_GAIN -3.64 dB
    REM REPLAYGAIN_TRACK_PEAK 0.988556
    INDEX 00 05:38:72
FILE "09 - It's Sand, Man.flac" WAVE
    INDEX 01 00:00:00
  TRACK 10 AUDIO
    TITLE "A Smooth One (alternate take)"
    REM REPLAYGAIN_TRACK_GAIN -4.39 dB
    REM REPLAYGAIN_TRACK_PEAK 0.910400
    INDEX 00 05:25:12
FILE "10 - A Smooth One (alternate take).flac" WAVE
    INDEX 01 00:00:00

Отчёт auCDtect Task manager:

Код:

-----------------------

DON'T MODIFY THIS FILE

-----------------------

PERFORMER: auCDtect Task Manager, ver. 1.6.0 RC1 build 1.6.0.1
Copyright (c) 2008-2010 y-soft. All rights reserved
http://y-soft.org

ANALYZER: auCDtect: CD records authenticity detector, version 0.8.2
Copyright (c) 2004 Oleg Berngardt. All rights reserved.
Copyright (c) 2004 Alexander Djourik. All rights reserved.

FILE: 10 - A Smooth One (alternate take).flac
  Size: 8668518 Hash: 58B29B5DDF368E20617DD49317F6CAB1 Accuracy: -m0
  Conclusion: CDDA 94%
  Signature: 845AB50826559BFA661F8D9D098E1913928E425B
FILE: 09 - It's Sand, Man.flac
  Size: 28044798 Hash: 6EC6F11376AE5821DD638A0AC271962C Accuracy: -m0
  Conclusion: CDDA 99%
  Signature: D09AB467878078D252C678411D1EC4BA4AB950B8
FILE: 08 - Primitive Cats.flac
  Size: 28717416 Hash: E66F61037271E84C3A50D66F72073478 Accuracy: -m0
  Conclusion: CDDA 100%
  Signature: EB992D16AA9A6DFE0E75B982BF50CAB917CE596E
FILE: 07 - A Smooth One.flac
  Size: 30231620 Hash: 81A94D44F8A1376D81D4DD77E1BFD7E2 Accuracy: -m0
  Conclusion: CDDA 99%
  Signature: D0DB31208F695E79E42C5D7C023BB7C66A5EB8D5
FILE: 06 - Half Past Jumping Time.flac
  Size: 20638942 Hash: 022335C686B76D44D9FFD52F39D52FD2 Accuracy: -m0
  Conclusion: CDDA 100%
  Signature: 425BB0F782209D4F5132D97F838181AE5009DCEA
FILE: 05 - Prez-Ence.flac
  Size: 23942392 Hash: F81AEBB540D5615167ACDF07392F9A16 Accuracy: -m0
  Conclusion: CDDA 100%
  Signature: C5615ECB834206183EDA3CD0A951572BD4E28688
FILE: 04 - Groover Wailin'.flac
  Size: 24045279 Hash: 8B2B464D04353DBA3B10C5CB892BAC65 Accuracy: -m0
  Conclusion: CDDA 100%
  Signature: E5824E718799902DE930C366DFE20AAAB5BC7919
FILE: 03 - What Am I Here For.flac
  Size: 20822575 Hash: D2E323753367ACC6D889745CB5A2EA92 Accuracy: -m0
  Conclusion: CDDA 100%
  Signature: 2B7859E1565C58D3E6351926CE1ACC1615BAFAA9
FILE: 02 - TNT.flac
  Size: 27004255 Hash: B15456F17CA86F4705C21A4C8037188D Accuracy: -m0
  Conclusion: CDDA 100%
  Signature: 26E6F2D1DD38A5C5808A05721F8A3FD65A1A9759
FILE: 01 - Keester Parade.flac
  Size: 35855931 Hash: 01EE0A001967675CBA3F295964E1BCB7 Accuracy: -m0
  Conclusion: CDDA 100%
  Signature: 9AA579299C5F4460E83B237E7DD0CF2D2451FF32

Состав

Harry Edison, Conrad Gozzo - trumpets
Cy Touff - bass trumpet
Richie Kamuca - tenor saxophone
Matt Utal - alto saxophone, baritone saxophone
Russ Freeman, Pete Jolly - piano
Leroy Vinnegar - bass
Chuck Flores - drums




Поглощение/вытеснение
Только с согласия релизера

gvm55

Детали торрента:
Название:Cy Touff - His Octet & Quintet (1955) 1998, Pacific Jazz Records[FLAC|Lossless|tracks + .cue] <Mainstream Jazz, Cool>
Дата добавления:23 Июн 2016 13:32:04
Размер:237 MB
Раздают:1
Качают:0
Форум:Jazz (Lossless)

All rights reserved © 2015-2019