TORRENTS45.XYZ

Скачать Воплі Відоплясова (Вопли Видоплясова) - Новая Коллекция. Лучшие песни. Часть II (2011) [FLAC|Lossless|image + .cue] <Folk Rock>


Воплі Відоплясова (Вопли Видоплясова) - Новая Коллекция. Лучшие песни. Часть II (2011)
Год: 2011
Жанр: Folk Rock
Издание: Монолит - МТ 000410-719-1
Страна: Україна
Продолжительность: 01:10:32

Кодек: FLAC
Битрейт: Lossless
Тип рипа: image + .cue

Наличие сканов в содержимом раздачи: Да
Источник(Релизер): Dark Crown :респект:

Треклист:
01. Вiдпустка (03:32)
02. Глибина (04:22)
03. Краiна мрiй (04:51)
04. Трава (03:23)
05. Боги (03:05)
06. Гармонiя (02:55)
07. Таемнi сфери (03:04)
08. Biдpaдa (03:00)
09. Колискова (04:07)
10. Юра (03:27)
11. Бiлi плями (03:00)
12. Рай (04:22)
13. Зоряна ociнь (04:17)
14. Велика сила (03:39)
15. Ладо (06:08)
16. Е-е (03:42)
17. Шалена Зipкa (02:59)
18. Любов (03:20)
19. Катерина (03:10)

Отчёт EAC:

Код: выделить все

Exact Audio Copy V1.0 beta 3 from 29. August 2011

Отчёт EAC об извлечении, выполненном 9. ноября 2014, 10:26

Воплі Відоплясова / Серия «Новая Коллекция. Лучшие песни» Часть II

Дисковод: Optiarc DVD RW AD-5200S   Adapter: 3  ID: 0

Режим чтения                 : Достоверность
Использование точного потока : Да
Отключение кэша аудио        : Да
Использование указателей C2  : Нет

Коррекция смещения при чтении                     : 48
Способность читать области Lead-in и Lead-out     : Нет
Заполнение пропущенных сэмплов тишиной            : Да
Удаление блоков с тишиной в начале и конце        : Нет
При вычислениях CRC использовались нулевые сэмплы : Да
Интерфейс                                         : Установленный внешний ASPI-интерфейс

Выходной формат          : Пользовательский кодировщик
Выбранный битрейт        : 768 kBit/s
Качество                 : Высокий
Добавление ID3-тега      : Нет
Утилита сжатия           : C:\Program Files\Exact Audio Copy\FLAC\FLAC.EXE
Дополнительные параметры : -6 -V -T "ARTIST=%artist%" -T "TITLE=%title%" -T "ALBUM=%albumtitle%" -T "DATE=%year%" -T "TRACKNUMBER=%tracknr%" -T "GENRE=%genre%" -T "COMMENT=%comment%" -T "BAND=%albuminterpret%" -T "ALBUMARTIST=%albuminterpret%" -T "COMPOSER=%composer%" %haslyrics%--tag-from-file=LYRICS="%lyricsfile%"%haslyrics% -T "DISCNUMBER=%cdnumber%" -T "TOTALDISCS=%totalcds%" -T "TOTALTRACKS=%numtracks%" %hascover%--picture="%coverfile%"%hascover% %source% -o %dest%

TOC извлечённого CD

     Трек |   Старт  | Длительность | Начальный сектор | Конечный сектор
    ---------------------------------------------------------------------
       1  |  0:00.00 |    3:32.21   |           0      |      15920
       2  |  3:32.21 |    4:22.27   |       15921      |      35597
       3  |  7:54.48 |    4:51.06   |       35598      |      57428
       4  | 12:45.54 |    3:23.46   |       57429      |      72699
       5  | 16:09.25 |    3:05.09   |       72700      |      86583
       6  | 19:14.34 |    2:55.25   |       86584      |      99733
       7  | 22:09.59 |    3:04.43   |       99734      |     113576
       8  | 25:14.27 |    3:00.46   |      113577      |     127122
       9  | 28:14.73 |    4:07.59   |      127123      |     145706
      10  | 32:22.57 |    3:27.28   |      145707      |     161259
      11  | 35:50.10 |    3:00.42   |      161260      |     174801
      12  | 38:50.52 |    4:22.54   |      174802      |     194505
      13  | 43:13.31 |    4:17.44   |      194506      |     213824
      14  | 47:31.00 |    3:39.71   |      213825      |     230320
      15  | 51:10.71 |    6:08.58   |      230321      |     257978
      16  | 57:19.54 |    3:42.73   |      257979      |     274701
      17  | 61:02.52 |    2:59.22   |      274702      |     288148
      18  | 64:01.74 |    3:20.12   |      288149      |     303160
      19  | 67:22.11 |    3:10.60   |      303161      |     317470

Характеристики диапазона извлечения и сообщения об ошибках

Выбранный диапазон

     Имя файла F:\LOSSLESS\Scans\Воплі Відоплясова - Серия «Новая Коллекция. Лучшие песни» Часть II.wav

     Пиковый уровень 100.0 %
     Скорость извлечения 4.6 X
     Качество диапазона 100.0 %
     CRC теста 2430AA6D
     CRC копии 2430AA6D
     Копирование... OK

Ошибок не произошло

AccurateRip: сводка

Трек  1  отсутствует в базе данных
Трек  2  отсутствует в базе данных
Трек  3  отсутствует в базе данных
Трек  4  отсутствует в базе данных
Трек  5  отсутствует в базе данных
Трек  6  отсутствует в базе данных
Трек  7  отсутствует в базе данных
Трек  8  отсутствует в базе данных
Трек  9  отсутствует в базе данных
Трек 10  отсутствует в базе данных
Трек 11  отсутствует в базе данных
Трек 12  отсутствует в базе данных
Трек 13  отсутствует в базе данных
Трек 14  отсутствует в базе данных
Трек 15  отсутствует в базе данных
Трек 16  отсутствует в базе данных
Трек 17  отсутствует в базе данных
Трек 18  отсутствует в базе данных
Трек 19  отсутствует в базе данных

Ни одного трека нет в базе AccurateRip

Конец отчёта

==== Контрольная сумма отчёта B29AD07429E3E51BC3400E18BDFA55D7DA836C2B0CF69225458D0F1187BCDA34 ====

Cue Sheet (.cue):

Код: выделить все

REM GENRE "Folk Rock"
REM DATE 2011
REM DISCID 0E108813
REM COMMENT "ExactAudioCopy v1.0b3"
PERFORMER "Воплі Відоплясова"
TITLE "Серия «Новая Коллекция. Лучшие песни» Часть II"
FILE "Воплі Відоплясова - Серия «Новая Коллекция. Лучшие песни» Часть II.flac" WAVE
  TRACK 01 AUDIO
    TITLE "Вiдпустка"
    PERFORMER "Воплі Відоплясова"
    FLAGS DCP
    INDEX 01 00:00:00
  TRACK 02 AUDIO
    TITLE "Глибина"
    PERFORMER "Воплі Відоплясова"
    FLAGS DCP
    INDEX 00 03:30:21
    INDEX 01 03:32:21
  TRACK 03 AUDIO
    TITLE "Краiна мрiй"
    PERFORMER "Воплі Відоплясова"
    FLAGS DCP
    INDEX 00 07:52:48
    INDEX 01 07:54:48
  TRACK 04 AUDIO
    TITLE "Трава"
    PERFORMER "Воплі Відоплясова"
    FLAGS DCP
    INDEX 00 12:43:54
    INDEX 01 12:45:54
  TRACK 05 AUDIO
    TITLE "Боги"
    PERFORMER "Воплі Відоплясова"
    FLAGS DCP
    INDEX 00 16:07:25
    INDEX 01 16:09:25
  TRACK 06 AUDIO
    TITLE "Гармонiя"
    PERFORMER "Воплі Відоплясова"
    FLAGS DCP
    INDEX 00 19:12:34
    INDEX 01 19:14:34
  TRACK 07 AUDIO
    TITLE "Таемнi сфери"
    PERFORMER "Воплі Відоплясова"
    FLAGS DCP
    INDEX 00 22:07:59
    INDEX 01 22:09:59
  TRACK 08 AUDIO
    TITLE "Biдpaдa"
    PERFORMER "Воплі Відоплясова"
    FLAGS DCP
    INDEX 00 25:12:27
    INDEX 01 25:14:27
  TRACK 09 AUDIO
    TITLE "Колискова"
    PERFORMER "Воплі Відоплясова"
    FLAGS DCP
    INDEX 00 28:12:73
    INDEX 01 28:14:73
  TRACK 10 AUDIO
    TITLE "Юра"
    PERFORMER "Воплі Відоплясова"
    FLAGS DCP
    INDEX 00 32:20:57
    INDEX 01 32:22:57
  TRACK 11 AUDIO
    TITLE "Бiлi плями"
    PERFORMER "Воплі Відоплясова"
    FLAGS DCP
    INDEX 00 35:48:10
    INDEX 01 35:50:10
  TRACK 12 AUDIO
    TITLE "Рай"
    PERFORMER "Воплі Відоплясова"
    FLAGS DCP
    INDEX 00 38:48:52
    INDEX 01 38:50:52
  TRACK 13 AUDIO
    TITLE "Зоряна ociнь"
    PERFORMER "Воплі Відоплясова"
    FLAGS DCP
    INDEX 00 43:11:31
    INDEX 01 43:13:31
  TRACK 14 AUDIO
    TITLE "Велика сила"
    PERFORMER "Воплі Відоплясова"
    FLAGS DCP
    INDEX 00 47:29:00
    INDEX 01 47:31:00
  TRACK 15 AUDIO
    TITLE "Ладо"
    PERFORMER "Воплі Відоплясова"
    FLAGS DCP
    INDEX 00 51:08:71
    INDEX 01 51:10:71
  TRACK 16 AUDIO
    TITLE "Е-е"
    PERFORMER "Воплі Відоплясова"
    FLAGS DCP
    INDEX 00 57:17:54
    INDEX 01 57:19:54
  TRACK 17 AUDIO
    TITLE "Шалена Зipкa"
    PERFORMER "Воплі Відоплясова"
    FLAGS DCP
    INDEX 00 61:00:52
    INDEX 01 61:02:52
  TRACK 18 AUDIO
    TITLE "Любов"
    PERFORMER "Воплі Відоплясова"
    FLAGS DCP
    INDEX 00 63:59:74
    INDEX 01 64:01:74
  TRACK 19 AUDIO
    TITLE "Катерина"
    PERFORMER "Воплі Відоплясова"
    FLAGS DCP
    INDEX 00 67:20:11
    INDEX 01 67:22:11

Отчёт auCDtect Task manager:

Код: выделить все

-----------------------

DON'T MODIFY THIS FILE

-----------------------

PERFORMER: auCDtect Task Manager, ver. 1.6.0 RC1 build 1.6.0.1
Copyright (c) 2008-2010 y-soft. All rights reserved
http://y-soft.org

ANALYZER: auCDtect: CD records authenticity detector, version 0.8.2
Copyright (c) 2004 Oleg Berngardt. All rights reserved.
Copyright (c) 2004 Alexander Djourik. All rights reserved.

FILE: Воплі Відоплясова - Серия «Новая Коллекция. Лучшие песни» Часть II.flac
  Size: 533773971 Hash: 084562FC17DDCA9E5A051D1D740D98A4 Accuracy: -m0
  Conclusion: CDDA 100%
  Signature: 85F4D925A7D3866D74907838EA958433CA65BCAC
Детали торрента:
Название:Воплі Відоплясова (Вопли Видоплясова) - Новая Коллекция. Лучшие песни. Часть II (2011) [FLAC|Lossless|image + .cue] <Folk Rock>
Дата добавления:19 Июн 2016 12:33:52
Размер:531 MB
Раздают:
Качают:0
Форум:Rock (Lossless)

All rights reserved © 2015-2019