TORRENTS45.XYZ

Скачать The Kelly Family - Over The Hump (1994) [FLAC|Lossless|image + .cue] <Folk Rock>


The Kelly Family - Over The Hump (1994)
Автор рипа: Konstantin_slash
Год: 1994
Жанр: Folk Rock
Издание: Kel-Life – 0028652KEL (Germany)
Продолжительность: 00:49:52
Кодек: FLAC
Битрейт: Lossless
Тип рипа: image + .cue
Треклист:
01. Why Why Why
02. Father's Nose
03. First Time
04. Baby Smile
05. Cover The Road
06. She's Crazy
07. Ares qui
08. Key To My Heart
09. Roses Of Red
10. Once In A While
11. Break Free
12. An Angel
13. The Wolf
14. Santa Maria

Отчёт EAC:

Код:

Exact Audio Copy V0.99 prebeta 4 from 23. January 2008

Отчёт EAC об извлечении, выполненном 13. июля 2008, 15:09

The Kelly Family / Over The Hump

Дисковод: PLEXTOR DVDR   PX-716A   Adapter: 0  ID: 0

Режим чтения                 : Достоверность
Использование точного потока : Да
Отключение кэша аудио        : Да
Использование указателей C2  : Нет

Коррекция смещения при чтении                     : 30
Способность читать области Lead-in и Lead-out     : Нет
Заполнение пропущенных сэмплов тишиной            : Да
Удаление блоков с тишиной в начале и конце        : Нет
При вычислениях CRC использовались нулевые сэмплы : Да
Интерфейс                                         : Встроенный Win32-интерфейс для Win NT/2000

Выходной формат : Внутренние WAV-операции
Формат сэмплов  : 44.100 Гц; 16 бит; стерео

TOC извлечённого CD

     Трек |   Старт  | Длительность | Начальный сектор | Конечный сектор
    ---------------------------------------------------------------------
       1  |  0:00.00 |    3:35.05   |           0      |      16129
       2  |  3:35.05 |    3:20.32   |       16130      |      31161
       3  |  6:55.37 |    4:17.48   |       31162      |      50484
       4  | 11:13.10 |    3:36.72   |       50485      |      66756
       5  | 14:50.07 |    4:00.55   |       66757      |      84811
       6  | 18:50.62 |    3:40.20   |       84812      |     101331
       7  | 22:31.07 |    3:49.23   |      101332      |     118529
       8  | 26:20.30 |    2:55.65   |      118530      |     131719
       9  | 29:16.20 |    3:47.72   |      131720      |     148816
      10  | 33:04.17 |    3:46.65   |      148817      |     165831
      11  | 36:51.07 |    2:38.43   |      165832      |     177724
      12  | 39:29.50 |    3:47.00   |      177725      |     194749
      13  | 43:16.50 |    3:26.62   |      194750      |     210261
      14  | 46:43.37 |    3:08.38   |      210262      |     224399

Характеристики диапазона извлечения и сообщения об ошибках

Выбранный диапазон

     Имя файла E:\mtorrent_flac\Collage - I Grandi Successi\The Kelly Family - Over The Hump.wav

     Пиковый уровень 100.0 %
     Качество диапазона 100.0 %
     CRC копии CB62DE5C
     Копирование... OK

Ошибок не произошло

AccurateRip: сводка

Трек  1  нет в базе данных
Трек  2  нет в базе данных
Трек  3  нет в базе данных
Трек  4  нет в базе данных
Трек  5  нет в базе данных
Трек  6  нет в базе данных
Трек  7  нет в базе данных
Трек  8  нет в базе данных
Трек  9  нет в базе данных
Трек 10  нет в базе данных
Трек 11  нет в базе данных
Трек 12  нет в базе данных
Трек 13  нет в базе данных
Трек 14  нет в базе данных

Ни одного трека нет в базе AccurateRip

Конец отчёта

Cue Sheet (.cue):

Код:

REM GENRE Rock
REM DATE 1994
REM DISCID C90BB00E
REM COMMENT "ExactAudioCopy v0.99pb4"
PERFORMER "The Kelly Family"
TITLE "Over The Hump"
FILE "The Kelly Family - Over The Hump.flac" WAVE
  TRACK 01 AUDIO
    TITLE "Why Why Why"
    PERFORMER "The Kelly Family"
    INDEX 01 00:00:00
  TRACK 02 AUDIO
    TITLE "Father's Nose"
    PERFORMER "The Kelly Family"
    INDEX 00 03:33:43
    INDEX 01 03:35:05
  TRACK 03 AUDIO
    TITLE "First Time"
    PERFORMER "The Kelly Family"
    INDEX 00 06:54:64
    INDEX 01 06:55:37
  TRACK 04 AUDIO
    TITLE "Baby Smile"
    PERFORMER "The Kelly Family"
    INDEX 00 11:10:60
    INDEX 01 11:13:10
  TRACK 05 AUDIO
    TITLE "Cover The Road"
    PERFORMER "The Kelly Family"
    INDEX 00 14:49:39
    INDEX 01 14:50:07
  TRACK 06 AUDIO
    TITLE "She's Crazy"
    PERFORMER "The Kelly Family"
    INDEX 00 18:49:14
    INDEX 01 18:50:62
  TRACK 07 AUDIO
    TITLE "Ares qui"
    PERFORMER "The Kelly Family"
    INDEX 00 22:30:44
    INDEX 01 22:31:07
  TRACK 08 AUDIO
    TITLE "Key To My Heart"
    PERFORMER "The Kelly Family"
    INDEX 01 26:20:30
  TRACK 09 AUDIO
    TITLE "Roses Of Red"
    PERFORMER "The Kelly Family"
    INDEX 00 29:15:54
    INDEX 01 29:16:20
  TRACK 10 AUDIO
    TITLE "Once In A While"
    PERFORMER "The Kelly Family"
    INDEX 00 33:04:02
    INDEX 01 33:04:17
  TRACK 11 AUDIO
    TITLE "Break Free"
    PERFORMER "The Kelly Family"
    INDEX 01 36:51:07
  TRACK 12 AUDIO
    TITLE "An Angel"
    PERFORMER "The Kelly Family"
    INDEX 00 39:29:30
    INDEX 01 39:29:50
  TRACK 13 AUDIO
    TITLE "The Wolf"
    PERFORMER "The Kelly Family"
    INDEX 00 43:14:49
    INDEX 01 43:16:50
  TRACK 14 AUDIO
    TITLE "Santa Maria"
    PERFORMER "The Kelly Family"
    INDEX 00 46:43:14
    INDEX 01 46:43:37

Отчёт auCDtect Task manager:

Код:

-----------------------

DON'T MODIFY THIS FILE

-----------------------

PERFORMER: auCDtect Task Manager, ver. 1.6.0 RC1 build 1.6.0.1
Copyright (c) 2008-2010 y-soft. All rights reserved
http://y-soft.org

ANALYZER: auCDtect: CD records authenticity detector, version 0.8.2
Copyright (c) 2004 Oleg Berngardt. All rights reserved.
Copyright (c) 2004 Alexander Djourik. All rights reserved.

FILE: The Kelly Family - Over The Hump.flac
  Size: 341990838 Hash: B81DE188EBEF7B42B0480712823C53C3 Accuracy: -m0
  Conclusion: CDDA 100%
  Signature: 7977D03FE2D47D008A6AF6BF32D9C739712C9984

Отчёт DRM:

Код:

foobar2000 1.1.3 / Dynamic Range Meter 1.1.1
log date: 2016-06-04 12:57:47

--------------------------------------------------------------------------------
Analyzed: The Kelly Family / Over The Hump
--------------------------------------------------------------------------------

DR         Peak         RMS     Duration Track
--------------------------------------------------------------------------------
DR10      -0.02 dB   -10.91 dB      3:35 ?-Why Why Why
DR11      -0.07 dB   -13.20 dB      3:20 ?-Father's Nose
DR9        0.00 dB   -12.29 dB      4:18 ?-First Time
DR11      -0.20 dB   -12.47 dB      3:37 ?-Baby Smile
DR10       0.00 dB   -13.25 dB      4:01 ?-Cover The Road
DR10      -0.38 dB   -12.54 dB      3:40 ?-She's Crazy
DR10      -1.16 dB   -12.24 dB      3:49 ?-Ares qui
DR12      -0.06 dB   -13.11 dB      2:56 ?-Key To My Heart
DR12      -0.11 dB   -13.99 dB      3:48 ?-Roses Of Red
DR9       -0.32 dB   -10.97 dB      3:47 ?-Once In A While
DR11       0.00 dB   -12.16 dB      2:39 ?-Break Free
DR10      -0.23 dB   -13.28 dB      3:47 ?-An Angel
DR11      -0.31 dB   -12.60 dB      3:27 ?-The Wolf
DR11      -0.07 dB   -13.74 dB      3:09 ?-Santa Maria
--------------------------------------------------------------------------------

Number of tracks:  14
Official DR value: DR10

Samplerate:        44100 Hz
Channels:          2
Bits per sample:   16
Bitrate:           914 kbps
Codec:             FLAC
================================================================================

Спектрограмма:



Covers:





YouTube
Детали торрента:
Название:The Kelly Family - Over The Hump (1994) [FLAC|Lossless|image + .cue] <Folk Rock>
Дата добавления:04 Июн 2016 10:59:08
Размер:338 MB
Раздают:1
Качают:0
Форум:Rock (Lossless)

All rights reserved © 2015-2019