TORRENTS45.XYZ

Скачать Винтаж - Light (2014) [FLAC|Lossless|image + .cue] <Pop>


Винтаж - Light (2014)
Год: 2014
Жанр: Pop
Издание: Союз - SZCD-6405-14
Продолжительность: 00:47:45

Кодек: FLAC
Битрейт: Lossless
Тип рипа: image + .cue

Треклист:
01. Искренность (3:48)
02. Деревья (3:49)
03. Ева (Slow) (3:44)
04. Запретный Мир (3:47)
05. Gomenasai (3:29)
06. Свежая Вода (Slow) (3:38)
07. 9 С Половиной Недель (Slow) (3:42)
08. Делай Мне Больно (3:58)
09. Стриптиз (3:46)
10. Sex (4:10)
11. Лолита (2:53)
12. XXI Век (3:22)
13. 30 Секунд (3:40)

Отчёт EAC:

Код:

Exact Audio Copy V1.0 beta 1 from 15. November 2010

EAC extraction logfile from 10. November 2014, 0:17

Винтаж / Light

Used drive  : PIONEER DVD-RW  DVR-212   Adapter: 1  ID: 0

Read mode               : Secure
Utilize accurate stream : Yes
Defeat audio cache      : Yes
Make use of C2 pointers : No

Read offset correction                      : 48
Overread into Lead-In and Lead-Out          : No
Fill up missing offset samples with silence : Yes
Delete leading and trailing silent blocks   : No
Null samples used in CRC calculations       : Yes
Used interface                              : Native Win32 interface for Win NT & 2000

Used output format : Internal WAV Routines
Sample format      : 44.100 Hz; 16 Bit; Stereo

TOC of the extracted CD

     Track |   Start  |  Length  | Start sector | End sector
    ---------------------------------------------------------
        1  |  0:00.00 |  3:47.38 |         0    |    17062
        2  |  3:47.38 |  3:49.00 |     17063    |    34237
        3  |  7:36.38 |  3:43.66 |     34238    |    51028
        4  | 11:20.29 |  3:47.00 |     51029    |    68053
        5  | 15:07.29 |  3:28.46 |     68054    |    83699
        6  | 18:36.00 |  3:38.29 |     83700    |   100078
        7  | 22:14.29 |  3:41.46 |    100079    |   116699
        8  | 25:56.00 |  3:58.00 |    116700    |   134549
        9  | 29:54.00 |  3:46.00 |    134550    |   151499
       10  | 33:40.00 |  4:09.38 |    151500    |   170212
       11  | 37:49.38 |  2:53.37 |    170213    |   183224
       12  | 40:43.00 |  3:21.38 |    183225    |   198337
       13  | 44:04.38 |  3:40.00 |    198338    |   214837

Range status and errors

Selected range

     Filename M:\FLAC (bruk67)\MP3\Винтаж (FLAC)\2014 Light\Винтаж - Light.wav

     Peak level 100.0 %
     Extraction speed 0.4 X
     Range quality 100.0 %
     Test CRC C48E52B4
     Copy CRC C48E52B4
     Copy OK

No errors occurred

AccurateRip summary

Track  1  accurately ripped (confidence 1)  [D585364A]
Track  2  accurately ripped (confidence 1)  [1AC80CD9]
Track  3  accurately ripped (confidence 1)  [4AB12B2C]
Track  4  accurately ripped (confidence 1)  [A438D369]
Track  5  accurately ripped (confidence 1)  [7382B542]
Track  6  accurately ripped (confidence 1)  [E32A335B]
Track  7  accurately ripped (confidence 1)  [1E5BB7CB]
Track  8  accurately ripped (confidence 1)  [3400C576]
Track  9  accurately ripped (confidence 1)  [C8C65CF7]
Track 10  accurately ripped (confidence 1)  [E19B9789]
Track 11  accurately ripped (confidence 1)  [5ABD6DFD]
Track 12  accurately ripped (confidence 1)  [8E344BA5]
Track 13  accurately ripped (confidence 1)  [7C9D0D0E]

All tracks accurately ripped

End of status report

==== Log checksum F16351AF75309DFDBEA4EB12D274A48251A254305CD9D8EF2D6C2616BAD1C80C ====

Отчёт auCDtect Task manager:

Код:

-----------------------

DON'T MODIFY THIS FILE

-----------------------

PERFORMER: auCDtect Task Manager, ver. 1.6.0 RC1 build 1.6.0.1
Copyright (c) 2008-2010 y-soft. All rights reserved
http://y-soft.org

ANALYZER: auCDtect: CD records authenticity detector, version 0.8.2
Copyright (c) 2004 Oleg Berngardt. All rights reserved.
Copyright (c) 2004 Alexander Djourik. All rights reserved.

FILE: Винтаж - Light - (2014).flac
  Size: 344636452 Hash: EE0063E62C64F7CA4304FB7F3B4D9390 Accuracy: -m0
  Conclusion: CDDA 100%
  Signature: AD8B417C6C8D5A4849659A65B820135F721C0AE8

Детали торрента:
Название:Винтаж - Light (2014) [FLAC|Lossless|image + .cue] <Pop>
Дата добавления:07 Апр 2016 17:24:33
Размер:399 MB
Раздают:
Качают:0
Форум:Отечественная поп-музыка (Lossless)

All rights reserved © 2015-2019