TORRENTS45.XYZ

Скачать Big Boy Bloater & The Limits - Luxury Hobo (2016) [FLAC|Lossless|image + .cue] <Blues Rock>


Big Boy Bloater & The Limits - Luxury Hobo (2016)
Год: 2016
Жанр: Blues Rock
Издание: Provogue Records - PRD 7486 2
Продолжительность: 00:39:50

Кодек: FLAC
Битрейт: Lossless
Тип рипа: image + .cue

Треклист:
01. Devils Not Angels (03:58)
02. It Came Out Of The Swamp (05:07)
03. I Love You (But I Can't Stand Your Friends) (04:08)
04. The Devils Tail (04:36)
05. I Got The Feeling Someone's Watching Me (04:47)
06. Luxury Hobo Blues (04:42)
07. Robot Girlfriend (03:52)
08. All Things Considered (04:36)
09. Not Cool Man (04:04)

Отчёт EAC:

Код:

Exact Audio Copy V1.0 beta 6 from 9. April 2015

EAC extraction logfile from 16. March 2016, 16:36

Big Boy Bloater & The Limits / Luxury Hobo

Used drive  : Optiarc DVD RW AD-7240S   Adapter: 1  ID: 0

Read mode               : Secure
Utilize accurate stream : Yes
Defeat audio cache      : Yes
Make use of C2 pointers : No

Read offset correction                      : 48
Overread into Lead-In and Lead-Out          : No
Fill up missing offset samples with silence : Yes
Delete leading and trailing silent blocks   : No
Null samples used in CRC calculations       : Yes
Used interface                              : Native Win32 interface for Win NT & 2000

Used output format              : User Defined Encoder
Selected bitrate                : 896 kBit/s
Quality                         : High
Add ID3 tag                     : No
Command line compressor         : C:\Program Files (x86)\Exact Audio Copy\Flac\flac.exe
Additional command line options : -6 -V -T "ARTIST=%artist%" -T "TITLE=%title%" -T "ALBUM=%albumtitle%" -T "DATE=%year%" -T "TRACKNUMBER=%tracknr%" -T "GENRE=%genre%" -T "COMMENT=%comment%" -T "BAND=%albuminterpret%" -T "COMPOSER=%composer%" %haslyrics%--tag-from-file=LYRICS="%lyricsfile%"%haslyrics% -T "DISCNUMBER=%cdnumber%" -T "TOTALDISCS=%totalcds%" -T "TOTALTRACKS=%numtracks%" %hascover%--picture="%coverfile%"%hascover% %source% -o %dest%

TOC of the extracted CD

     Track |   Start  |  Length  | Start sector | End sector
    ---------------------------------------------------------
        1  |  0:00.00 |  4:01.01 |         0    |    18075
        2  |  4:01.01 |  5:08.66 |     18076    |    41241
        3  |  9:09.67 |  4:09.28 |     41242    |    59944
        4  | 13:19.20 |  4:37.24 |     59945    |    80743
        5  | 17:56.44 |  4:48.16 |     80744    |   102359
        6  | 22:44.60 |  4:43.31 |    102360    |   123615
        7  | 27:28.16 |  3:52.67 |    123616    |   141082
        8  | 31:21.08 |  4:36.60 |    141083    |   161842
        9  | 35:57.68 |  4:04.72 |    161843    |   180214

Range status and errors

Selected range

     Filename D:\My Music Archive_D\Big Boy Bloater\(2016) Big Boy Bloater & The Limits - Luxury Hobo\Big Boy Bloater & The Limits - Luxury Hobo.wav

     Peak level 99.9 %
     Extraction speed 3.6 X
     Range quality 100.0 %
     Test CRC EAAD99A8
     Copy CRC EAAD99A8
     Copy OK

No errors occurred

AccurateRip summary

Track  1  not present in database
Track  2  not present in database
Track  3  not present in database
Track  4  not present in database
Track  5  not present in database
Track  6  not present in database
Track  7  not present in database
Track  8  not present in database
Track  9  not present in database

None of the tracks are present in the AccurateRip database

End of status report

==== Log checksum 0062CAF720666BA9AA699B3DE35423FCCB3F03BCA814AE413B798FE2ED8B6C3C ====

Cue Sheet (.cue):

Код:

REM GENRE Blues
REM DATE 2016
REM DISCID 70096209
REM COMMENT "ExactAudioCopy v1.0b6"
CATALOG 0819873012634
PERFORMER "Big Boy Bloater & The Limits"
TITLE "Luxury Hobo"
FILE "Big Boy Bloater & The Limits - Luxury Hobo.flac" WAVE
  TRACK 01 AUDIO
    TITLE "Devils Not Angels"
    PERFORMER "Big Boy Bloater & The Limits"
    ISRC NLB931600401
    INDEX 01 00:00:00
  TRACK 02 AUDIO
    TITLE "It Came Out Of The Swamp"
    PERFORMER "Big Boy Bloater & The Limits"
    ISRC NLB931600402
    INDEX 01 04:01:01
  TRACK 03 AUDIO
    TITLE "I Love You (But I Can't Stand Your Friends)"
    PERFORMER "Big Boy Bloater & The Limits"
    ISRC NLB931600403
    INDEX 00 09:08:60
    INDEX 01 09:09:67
  TRACK 04 AUDIO
    TITLE "The Devils Tail"
    PERFORMER "Big Boy Bloater & The Limits"
    ISRC NLB931600404
    INDEX 00 13:18:02
    INDEX 01 13:19:20
  TRACK 05 AUDIO
    TITLE "I Got The Feeling Someone's Watching Me"
    PERFORMER "Big Boy Bloater & The Limits"
    ISRC NLB931600405
    INDEX 00 17:55:50
    INDEX 01 17:56:44
  TRACK 06 AUDIO
    TITLE "Luxury Hobo Blues"
    PERFORMER "Big Boy Bloater & The Limits"
    ISRC NLB931600406
    INDEX 01 22:44:60
  TRACK 07 AUDIO
    TITLE "Robot Girlfriend"
    PERFORMER "Big Boy Bloater & The Limits"
    ISRC NLB931600407
    INDEX 01 27:28:16
  TRACK 08 AUDIO
    TITLE "All Things Considered"
    PERFORMER "Big Boy Bloater & The Limits"
    ISRC NLB931600408
    INDEX 01 31:21:08
  TRACK 09 AUDIO
    TITLE "Not Cool Man"
    PERFORMER "Big Boy Bloater & The Limits"
    ISRC NLB931600409
    INDEX 01 35:57:68

Отчёт auCDtect Task manager:

Код:

-----------------------

DON'T MODIFY THIS FILE

-----------------------

PERFORMER: auCDtect Task Manager, ver. 1.6.0 RC1 build 1.6.0.1
Copyright (c) 2008-2010 y-soft. All rights reserved
http://y-soft.org

ANALYZER: auCDtect: CD records authenticity detector, version 0.8.2
Copyright (c) 2004 Oleg Berngardt. All rights reserved.
Copyright (c) 2004 Alexander Djourik. All rights reserved.

FILE: Big Boy Bloater & The Limits - Luxury Hobo.flac
  Size: 305785149 Hash: EC4072582F006978462F8E35838916EE Accuracy: -m0
  Conclusion: CDDA 100%
  Signature: C8757E12D66564EAEA19654AB7354C48569EB389
YouTube
Детали торрента:
Название:Big Boy Bloater & The Limits - Luxury Hobo (2016) [FLAC|Lossless|image + .cue] <Blues Rock>
Дата добавления:19 Мар 2016 12:09:02
Размер:296 MB
Раздают:1
Качают:0
Форум:Blues, Soul (Lossless)

All rights reserved © 2015-2018