TORRENTS45.XYZ

Скачать Maria Callas - Callas at La Scala (2014) [FLAC 2.0|96/24|Lossless|WEB-DL|tracks] <Classical, Opera>


Maria Callas - Callas at La Scala (2014)
Год: 2014
Жанр: Classical, Opera
Продолжительность: 00:41:51
Лейбл: Warner Classics
Кодек: FLAC 2.0|96/24
Битрейт: Lossless|WEB-DL
Тип рипа: tracks
Источник: www.hdtracks.com

Треклист:
Vincenzo Bellini (1801-1835)
La sonnambula
01. Act 1: "Compagne, temiri amici ....Come per me sereno" (Amina) (5:48)
02. Act 3: "Oh, se una volta sola ....Ah! non credea mirarti" (Amina) (14:06)
Luigi Cherubini (1760-1842)
Medea
03. Act 1: "Dei tuoi figli la madre from Medea" (Medea) (4:49)
Gaspare Spontini (1774-1851)
La vestale
04. Act 2: "Tu che invoco con orrore" (Julia) (10:52)
05. Act 2: "O nome tutelar" (Julia) (2:32)
06. Act 3: "Caro oggetto" (Julia) (3:45)

Спектрограмма:




Mediainfo:

Код:

General
Complete name                            : /mnt/torrents/releases/music/hd/Maria Callas - Callas at La Scala (1955) [Remastered 2014][96-24]/06-La vestale, Act 3_ _Caro oggetto_ (Julia).flac
Format                                   : FLAC
Format/Info                              : Free Lossless Audio Codec
File size                                : 36.6 MiB
Duration                                 : 3mn 45s
Overall bit rate mode                    : Variable
Overall bit rate                         : 1 363 Kbps
Album                                    : Callas at La Scala (1955)
Album/Performer                          : Maria Callas
Track name                               : La vestale, Act 3: "Caro oggetto" (Julia)
Track name/Position                      : 06
Track name/Total                         : 06
Performer                                : Maria Callas, Orchestra del Teatro alla Scala di Milano, Tullio Serafin
Composer                                 : Gaspare Spontini
Genre                                    : Classical
Recorded date                            : 2014
Copyright                                : 1958 Warner Classics
Cover                                    : Yes
Cover type                               : Cover (front)
Cover MIME                               : image/jpeg
HDTRACKS                                 : www.hdtracks.com

Audio
Format                                   : FLAC
Format/Info                              : Free Lossless Audio Codec
Duration                                 : 3mn 45s
Bit rate mode                            : Variable
Bit rate                                 : 1 353 Kbps
Channel(s)                               : 2 channels
Sampling rate                            : 96.0 KHz
Bit depth                                : 24 bits
Stream size                              : 36.3 MiB (99%)
Writing library                          : libFLAC 1.2.1 (UTC 2007-09-17)

General
Complete name                            : /mnt/torrents/releases/music/hd/Maria Callas - Callas at La Scala (1955) [Remastered 2014][96-24]/spek/03-Medea, Act 1_ _Dei tuoi figli la madre from Medea_ (Medea).flac.png
Format                                   : PNG
Format/Info                              : Portable Network Graphic
File size                                : 986 KiB

Image
Format                                   : PNG
Format/Info                              : Portable Network Graphic
Width                                    : 1 109 pixels
Height                                   : 822 pixels
Bit depth                                : 24 bits
Compression mode                         : Lossless
Stream size                              : 986 KiB (100%)

General
Complete name                            : /mnt/torrents/releases/music/hd/Maria Callas - Callas at La Scala (1955) [Remastered 2014][96-24]/spek/05-La vestale, Act 2_ _O nome tutelar_ (Julia).flac.png
Format                                   : PNG
Format/Info                              : Portable Network Graphic
File size                                : 1.04 MiB

Image
Format                                   : PNG
Format/Info                              : Portable Network Graphic
Width                                    : 1 109 pixels
Height                                   : 822 pixels
Bit depth                                : 24 bits
Compression mode                         : Lossless
Stream size                              : 1.04 MiB (100%)

General
Complete name                            : /mnt/torrents/releases/music/hd/Maria Callas - Callas at La Scala (1955) [Remastered 2014][96-24]/spek/02-La sonnambula, Act 3_ _Oh, se una volta sola Ah! non credea mirarti_ (Amina).flac.png
Format                                   : PNG
Format/Info                              : Portable Network Graphic
File size                                : 846 KiB

Image
Format                                   : PNG
Format/Info                              : Portable Network Graphic
Width                                    : 1 109 pixels
Height                                   : 822 pixels
Bit depth                                : 24 bits
Compression mode                         : Lossless
Stream size                              : 846 KiB (100%)

General
Complete name                            : /mnt/torrents/releases/music/hd/Maria Callas - Callas at La Scala (1955) [Remastered 2014][96-24]/spek/04-La vestale, Act 2_ _Tu che invoco con orrore_ (Julia).flac.png
Format                                   : PNG
Format/Info                              : Portable Network Graphic
File size                                : 876 KiB

Image
Format                                   : PNG
Format/Info                              : Portable Network Graphic
Width                                    : 1 109 pixels
Height                                   : 822 pixels
Bit depth                                : 24 bits
Compression mode                         : Lossless
Stream size                              : 876 KiB (100%)

General
Complete name                            : /mnt/torrents/releases/music/hd/Maria Callas - Callas at La Scala (1955) [Remastered 2014][96-24]/spek/01-La sonnambula, Act 1_ _Compagne, temiri amici - Come per me sereno_ (Amina).flac.png
Format                                   : PNG
Format/Info                              : Portable Network Graphic
File size                                : 973 KiB

Image
Format                                   : PNG
Format/Info                              : Portable Network Graphic
Width                                    : 1 109 pixels
Height                                   : 822 pixels
Bit depth                                : 24 bits
Compression mode                         : Lossless
Stream size                              : 973 KiB (100%)

General
Complete name                            : /mnt/torrents/releases/music/hd/Maria Callas - Callas at La Scala (1955) [Remastered 2014][96-24]/spek/06-La vestale, Act 3_ _Caro oggetto_ (Julia).flac.png
Format                                   : PNG
Format/Info                              : Portable Network Graphic
File size                                : 1 001 KiB

Image
Format                                   : PNG
Format/Info                              : Portable Network Graphic
Width                                    : 1 109 pixels
Height                                   : 822 pixels
Bit depth                                : 24 bits
Compression mode                         : Lossless
Stream size                              : 1 001 KiB (100%)

General
Complete name                            : /mnt/torrents/releases/music/hd/Maria Callas - Callas at La Scala (1955) [Remastered 2014][96-24]/05-La vestale, Act 2_ _O nome tutelar_ (Julia).flac
Format                                   : FLAC
Format/Info                              : Free Lossless Audio Codec
File size                                : 24.8 MiB
Duration                                 : 2mn 31s
Overall bit rate mode                    : Variable
Overall bit rate                         : 1 373 Kbps
Album                                    : Callas at La Scala (1955)
Album/Performer                          : Maria Callas
Track name                               : La vestale, Act 2: "O nome tutelar" (Julia)
Track name/Position                      : 05
Track name/Total                         : 06
Performer                                : Maria Callas, Orchestra del Teatro alla Scala di Milano, Tullio Serafin
Composer                                 : Gaspare Spontini
Genre                                    : Classical
Recorded date                            : 2014
Copyright                                : 1958 Warner Classics
Cover                                    : Yes
Cover type                               : Cover (front)
Cover MIME                               : image/jpeg
HDTRACKS                                 : www.hdtracks.com

Audio
Format                                   : FLAC
Format/Info                              : Free Lossless Audio Codec
Duration                                 : 2mn 31s
Bit rate mode                            : Variable
Bit rate                                 : 1 358 Kbps
Channel(s)                               : 2 channels
Sampling rate                            : 96.0 KHz
Bit depth                                : 24 bits
Stream size                              : 24.6 MiB (99%)
Writing library                          : libFLAC 1.2.1 (UTC 2007-09-17)

General
Complete name                            : /mnt/torrents/releases/music/hd/Maria Callas - Callas at La Scala (1955) [Remastered 2014][96-24]/01-La sonnambula, Act 1_ _Compagne, temiri amici - Come per me sereno_ (Amina).flac
Format                                   : FLAC
Format/Info                              : Free Lossless Audio Codec
File size                                : 56.1 MiB
Duration                                 : 5mn 47s
Overall bit rate mode                    : Variable
Overall bit rate                         : 1 353 Kbps
Album                                    : Callas at La Scala (1955)
Album/Performer                          : Maria Callas
Track name                               : La sonnambula, Act 1: "Compagne, temiri amici ....Come per me sereno" (Amina)
Track name/Position                      : 01
Track name/Total                         : 06
Performer                                : Maria Callas, Orchestra del Teatro alla Scala di Milano, Tullio Serafin
Composer                                 : Vincenzo Bellini
Genre                                    : Classical
Recorded date                            : 2014
Copyright                                : 1958 Warner Classics
Cover                                    : Yes
Cover type                               : Cover (front)
Cover MIME                               : image/jpeg
HDTRACKS                                 : www.hdtracks.com

Audio
Format                                   : FLAC
Format/Info                              : Free Lossless Audio Codec
Duration                                 : 5mn 47s
Bit rate mode                            : Variable
Bit rate                                 : 1 346 Kbps
Channel(s)                               : 2 channels
Sampling rate                            : 96.0 KHz
Bit depth                                : 24 bits
Stream size                              : 55.8 MiB (100%)
Writing library                          : libFLAC 1.2.1 (UTC 2007-09-17)

General
Complete name                            : /mnt/torrents/releases/music/hd/Maria Callas - Callas at La Scala (1955) [Remastered 2014][96-24]/04-La vestale, Act 2_ _Tu che invoco con orrore_ (Julia).flac
Format                                   : FLAC
Format/Info                              : Free Lossless Audio Codec
File size                                : 109 MiB
Duration                                 : 10mn 52s
Overall bit rate mode                    : Variable
Overall bit rate                         : 1 396 Kbps
Album                                    : Callas at La Scala (1955)
Album/Performer                          : Maria Callas
Track name                               : La vestale, Act 2: "Tu che invoco con orrore" (Julia)
Track name/Position                      : 04
Track name/Total                         : 06
Performer                                : Maria Callas, Orchestra del Teatro alla Scala di Milano, Tullio Serafin
Composer                                 : Gaspare Spontini
Genre                                    : Classical
Recorded date                            : 2014
Copyright                                : 1958 Warner Classics
Cover                                    : Yes
Cover type                               : Cover (front)
Cover MIME                               : image/jpeg
HDTRACKS                                 : www.hdtracks.com

Audio
Format                                   : FLAC
Format/Info                              : Free Lossless Audio Codec
Duration                                 : 10mn 52s
Bit rate mode                            : Variable
Bit rate                                 : 1 392 Kbps
Channel(s)                               : 2 channels
Sampling rate                            : 96.0 KHz
Bit depth                                : 24 bits
Stream size                              : 108 MiB (100%)
Writing library                          : libFLAC 1.2.1 (UTC 2007-09-17)

General
Complete name                            : /mnt/torrents/releases/music/hd/Maria Callas - Callas at La Scala (1955) [Remastered 2014][96-24]/artwork/Callas at La Scala - sleeve.jpg
Format                                   : JPEG
File size                                : 795 KiB

Image
Format                                   : JPEG
Width                                    : 1 451 pixels
Height                                   : 1 473 pixels
Color space                              : YUV
Chroma subsampling                       : 4:2:0
Bit depth                                : 8 bits
Compression mode                         : Lossy
Stream size                              : 795 KiB (100%)

General
Complete name                            : /mnt/torrents/releases/music/hd/Maria Callas - Callas at La Scala (1955) [Remastered 2014][96-24]/artwork/Callas at La Scala - booklet.pdf
File size                                : 2.76 MiB

General
Complete name                            : /mnt/torrents/releases/music/hd/Maria Callas - Callas at La Scala (1955) [Remastered 2014][96-24]/artwork/Callas at La Scala - inlay.jpg
Format                                   : JPEG
File size                                : 218 KiB

Image
Format                                   : JPEG
Width                                    : 1 457 pixels
Height                                   : 1 500 pixels
Color space                              : YUV
Chroma subsampling                       : 4:2:0
Bit depth                                : 8 bits
Compression mode                         : Lossy
Stream size                              : 218 KiB (100%)

General
Complete name                            : /mnt/torrents/releases/music/hd/Maria Callas - Callas at La Scala (1955) [Remastered 2014][96-24]/00-Maria Callas - Callas at La Scala (1955).m3u8
File size                                : 409 Bytes

General
Complete name                            : /mnt/torrents/releases/music/hd/Maria Callas - Callas at La Scala (1955) [Remastered 2014][96-24]/02-La sonnambula, Act 3_ _Oh, se una volta sola Ah! non credea mirarti_ (Amina).flac
Format                                   : FLAC
Format/Info                              : Free Lossless Audio Codec
File size                                : 137 MiB
Duration                                 : 14mn 5s
Overall bit rate mode                    : Variable
Overall bit rate                         : 1 359 Kbps
Album                                    : Callas at La Scala (1955)
Album/Performer                          : Maria Callas
Track name                               : La sonnambula, Act 3: "Oh, se una volta sola ....Ah! non credea mirarti" (Amina)
Track name/Position                      : 02
Track name/Total                         : 06
Performer                                : Maria Callas, Orchestra del Teatro alla Scala di Milano, Tullio Serafin
Composer                                 : Vincenzo Bellini
Genre                                    : Classical
Recorded date                            : 2014
Copyright                                : 1958 Warner Classics
Cover                                    : Yes
Cover type                               : Cover (front)
Cover MIME                               : image/jpeg
HDTRACKS                                 : www.hdtracks.com

Audio
Format                                   : FLAC
Format/Info                              : Free Lossless Audio Codec
Duration                                 : 14mn 5s
Bit rate mode                            : Variable
Bit rate                                 : 1 356 Kbps
Channel(s)                               : 2 channels
Sampling rate                            : 96.0 KHz
Bit depth                                : 24 bits
Stream size                              : 137 MiB (100%)
Writing library                          : libFLAC 1.2.1 (UTC 2007-09-17)

General
Complete name                            : /mnt/torrents/releases/music/hd/Maria Callas - Callas at La Scala (1955) [Remastered 2014][96-24]/03-Medea, Act 1_ _Dei tuoi figli la madre from Medea_ (Medea).flac
Format                                   : FLAC
Format/Info                              : Free Lossless Audio Codec
File size                                : 48.4 MiB
Duration                                 : 4mn 48s
Overall bit rate mode                    : Variable
Overall bit rate                         : 1 407 Kbps
Album                                    : Callas at La Scala (1955)
Album/Performer                          : Maria Callas
Track name                               : Medea, Act 1: "Dei tuoi figli la madre from Medea" (Medea)
Track name/Position                      : 03
Track name/Total                         : 06
Performer                                : Maria Callas, Orchestra del Teatro alla Scala di Milano, Tullio Serafin
Composer                                 : Luigi Cherubini
Genre                                    : Classical
Recorded date                            : 2014
Copyright                                : 1958 Warner Classics
Cover                                    : Yes
Cover type                               : Cover (front)
Cover MIME                               : image/jpeg
HDTRACKS                                 : www.hdtracks.com

Audio
Format                                   : FLAC
Format/Info                              : Free Lossless Audio Codec
Duration                                 : 4mn 48s
Bit rate mode                            : Variable
Bit rate                                 : 1 399 Kbps
Channel(s)                               : 2 channels
Sampling rate                            : 96.0 KHz
Bit depth                                : 24 bits
Stream size                              : 48.1 MiB (99%)
Writing library                          : libFLAC 1.2.1 (UTC 2007-09-17)
Детали торрента:
Название:Maria Callas - Callas at La Scala (2014) [FLAC 2.0|96/24|Lossless|WEB-DL|tracks] <Classical, Opera>
Дата добавления:14 Мар 2016 22:09:11
Размер:421 MB
Раздают:1
Качают:0
Форум:Классика (HD Audio)

All rights reserved © 2015-2018