TORRENTS45.XYZ

Скачать The Ventures - Live in Japan '65 (1995) [FLAC|Lossless|image + .cue] <Instrumental Rock>


The Ventures - Live in Japan '65 (1995)
Год: 1995
Жанр: Instrumental rock
Издание: EMI Records - 7243 8 32820 2 9
Продолжительность: 01:17:54

Кодек: FLAC
Битрейт: Lossless
Тип рипа: image + .cue
Источник: собственный рип

Треклист:
01. Introduction
02. The Cruel Sea (The Cruel Surf)
03. Penetration
04. Bulldog
05. I Feel Fine
06. Band Member Introductions
07. The House of the Rising Sun
08. Out of Limits
09. Slaughter on Tenth Avenue
10. Besame Mucho Twist
11. Love Potion No. 9
12. Walk Don't Run '64
13. When You Walk in the Room
14. Rap City

Продолжение треклиста:

15. Wipe Out
16. The Ventures Medley: Walk Don't Run / Lullaby of the Leaves / Perfidia
17. The Lonely Bull
18. Telstar
19. Driving Guitars (Ventures Twist)
20. Mariner #4
21. The Pink Panther Theme
22. Yellow Jacket
23. Apache
24. Pipeline
25. Surf Rider (Spudnik)
26. Journey to the Stars
27. Bumble Bee Twist (The Wasp)
28. Diamond Head
29. Caravan

Отчёт EAC:

Код:

Exact Audio Copy V1.1 from 23. June 2015

Отчёт EAC об извлечении, выполненном 7. марта 2016, 18:16

The Ventures / Live in Japan '65

Дисковод: TSSTcorpCDDVDW TS-L633A   Adapter: 1  ID: 0

Режим чтения                 : Достоверность
Использование точного потока : Да
Отключение кэша аудио        : Да
Использование указателей C2  : Нет

Коррекция смещения при чтении                     : 6
Способность читать области Lead-in и Lead-out     : Нет
Заполнение пропущенных сэмплов тишиной            : Да
Удаление блоков с тишиной в начале и конце        : Нет
При вычислениях CRC использовались нулевые сэмплы : Да
Интерфейс                                         : Встроенный Win32-интерфейс для Win NT/2000

Выходной формат          : Пользовательский кодировщик
Выбранный битрейт        : 128 kBit/s
Качество                 : Высокий
Добавление ID3-тега      : Нет
Утилита сжатия           : flac.exe
Дополнительные параметры : -V -8 -T "Date=%year%" -T "Genre=%genre%" %source%

TOC извлечённого CD

     Трек |   Старт  | Длительность | Начальный сектор | Конечный сектор
    ---------------------------------------------------------------------
       1  |  0:00.00 |    1:05.00   |           0      |       4874
       2  |  1:05.00 |    2:26.52   |        4875      |      15876
       3  |  3:31.52 |    2:10.18   |       15877      |      25644
       4  |  5:41.70 |    3:12.07   |       25645      |      40051
       5  |  8:54.02 |    2:12.13   |       40052      |      49964
       6  | 11:06.15 |    1:56.40   |       49965      |      58704
       7  | 13:02.55 |    2:42.57   |       58705      |      70911
       8  | 15:45.37 |    2:29.35   |       70912      |      82121
       9  | 18:14.72 |    2:29.05   |       82122      |      93301
      10  | 20:44.02 |    2:14.53   |       93302      |     103404
      11  | 22:58.55 |    2:10.20   |      103405      |     113174
      12  | 25:09.00 |    2:23.62   |      113175      |     123961
      13  | 27:32.62 |    2:21.65   |      123962      |     134601
      14  | 29:54.52 |    1:57.10   |      134602      |     143386
      15  | 31:51.62 |    4:04.18   |      143387      |     161704
      16  | 35:56.05 |    3:25.65   |      161705      |     177144
      17  | 39:21.70 |    2:18.50   |      177145      |     187544
      18  | 41:40.45 |    2:40.57   |      187545      |     199601
      19  | 44:21.27 |    1:47.55   |      199602      |     207681
      20  | 46:09.07 |    1:57.18   |      207682      |     216474
      21  | 48:06.25 |    2:30.00   |      216475      |     227724
      22  | 50:36.25 |    2:39.00   |      227725      |     239649
      23  | 53:15.25 |    3:10.62   |      239650      |     253961
      24  | 56:26.12 |    2:25.15   |      253962      |     264851
      25  | 58:51.27 |    2:19.08   |      264852      |     275284
      26  | 61:10.35 |    2:12.72   |      275285      |     285256
      27  | 63:23.32 |    2:30.23   |      285257      |     296529
      28  | 65:53.55 |    2:14.65   |      296530      |     306644
      29  | 68:08.45 |    9:45.12   |      306645      |     350531

Характеристики диапазона извлечения и сообщения об ошибках

Выбранный диапазон

     Имя файла D:\Раздача\The Ventures - Live in Japan '65.wav

     Пиковый уровень 100.0 %
     Скорость извлечения 4.5 X
     Качество диапазона 99.9 %
     CRC теста 4CAE2646
     CRC копии 4CAE2646
     Копирование... OK

Ошибок не произошло

AccurateRip: сводка

Трек  1  : извлечено точно (доверие 4)  [EC01A06E]  (AR v1)
Трек  2  : извлечено точно (доверие 4)  [2876A1BE]  (AR v1)
Трек  3  : извлечено точно (доверие 4)  [62970009]  (AR v1)
Трек  4  : извлечено точно (доверие 4)  [F4C9062C]  (AR v1)
Трек  5  : извлечено точно (доверие 3)  [A9096DC6]  (AR v1)
Трек  6  : извлечено точно (доверие 4)  [29D86B81]  (AR v1)
Трек  7  : извлечено точно (доверие 4)  [15507457]  (AR v1)
Трек  8  : извлечено точно (доверие 4)  [7FCCB457]  (AR v1)
Трек  9  : извлечено точно (доверие 4)  [6E57A823]  (AR v1)
Трек 10  : извлечено точно (доверие 4)  [6364D555]  (AR v1)
Трек 11  : извлечено точно (доверие 4)  [053E22C9]  (AR v1)
Трек 12  : извлечено точно (доверие 4)  [2E697F48]  (AR v1)
Трек 13  : извлечено точно (доверие 4)  [AC260B2C]  (AR v1)
Трек 14  : извлечено точно (доверие 4)  [6F6C41AF]  (AR v1)
Трек 15  : извлечено точно (доверие 4)  [120121BE]  (AR v1)
Трек 16  : извлечено точно (доверие 4)  [7E64CBEC]  (AR v1)
Трек 17  : извлечено точно (доверие 4)  [7AD0F22A]  (AR v1)
Трек 18  : извлечено точно (доверие 4)  [C4CC295E]  (AR v1)
Трек 19  : извлечено точно (доверие 4)  [424BAEFB]  (AR v1)
Трек 20  : извлечено точно (доверие 4)  [C9613A24]  (AR v1)
Трек 21  : извлечено точно (доверие 4)  [938CA97C]  (AR v1)
Трек 22  : извлечено точно (доверие 4)  [41563AC1]  (AR v1)
Трек 23  : извлечено точно (доверие 4)  [2B9274ED]  (AR v1)
Трек 24  : извлечено точно (доверие 4)  [38EE93EF]  (AR v1)
Трек 25  : извлечено точно (доверие 4)  [3338D0F3]  (AR v1)
Трек 26  : извлечено точно (доверие 4)  [2CAAD7F4]  (AR v1)
Трек 27  : извлечено точно (доверие 4)  [E58AA6EE]  (AR v1)
Трек 28  : извлечено точно (доверие 4)  [920C616D]  (AR v1)
Трек 29  : извлечено точно (доверие 4)  [18A15046]  (AR v1)

Все треки извлечены точно

Конец отчёта

==== Контрольная сумма отчёта 1B7A12BA544302B9C2F0631A6AE251817F76C7AA6B75B2E0EE6A759978D8556C ====

Отчёт auCDtect Task manager:

Код:

DON'T MODIFY THIS FILE

-----------------------

PERFORMER: auCDtect Task Manager, ver. 1.6.0 RC1 build 1.6.0.1
Copyright (c) 2008-2010 y-soft. All rights reserved
http://y-soft.org

ANALYZER: auCDtect: CD records authenticity detector, version 0.8.2
Copyright (c) 2004 Oleg Berngardt. All rights reserved.
Copyright (c) 2004 Alexander Djourik. All rights reserved.

FILE: The Ventures - Live in Japan '65.flac
  Size: 511906288 Hash: ADA1EB1725D66D01C59C9B20BAE1632B Accuracy: -m0
  Conclusion: CDDA 100%
  Signature: 2C594C7CFD1FC3D2DBC0FEB618B4BE2C40F1380E
Детали торрента:
Название:The Ventures - Live in Japan '65 (1995) [FLAC|Lossless|image + .cue] <Instrumental Rock>
Дата добавления:07 Мар 2016 20:04:18
Размер:508 MB
Раздают:1
Качают:0
Форум:Rock (Lossless)

All rights reserved © 2015-2019