TORRENTS45.XYZ

Скачать #Хоррор / #Horror (2015) HDRip [VO]


#Хоррор / #Horror (2015) HDRip
Производство: США
Жанр: Ужасы, Триллер, Драма, Детектив

Режиссер: Тара Сабкофф
Продюсер: Джейсон Ладман, Орен Сигал, Брендан Уолш
Актеры: Хлоя Севиньи, Тимоти Хаттон, Бальтазар Гетти, Стелла Шнабель, Хейли Мерфи, Бриджет МакГарри, Блу Линдеберг, Мина Сандвол, Эмма Адлер

Описание:
Героини фильма - 12 летние девчонки, решившие на выходных развлечься и поучаствовать в онлайн-игре. Для победы нужны выкладывать свои фото и получать «лайки». Но их погоня за популярностью заходит настолько далеко, что вечер превращается в кровавую баню.


Дата мировой премьеры: 12 ноября 2015

Продолжительность: 01:37:52
Качество видео: HDRip
Перевод: Одноголосый закадровый, любительский
Озвучка / Автор перевода: Хихидок / Марселин
Субтитры: Отсутствуют

Видео: Xvid, 720x304, ~1589 kbps
Аудио #1: MP3, 2 ch, 192 kbps - русский
Аудио #2: MP3, 2 ch, 192 kbps - английский

Mediainfo:

Код: выделить все
Общее
Полное имя                               : Horror.2015.VO.HDRip.avi
Формат                                   : AVI
Формат/Информация                        : Audio Video Interleave
Размер файла                             : 1,36 Гбайт
Продолжительность                        : 1 ч. 37 м.
Общий поток                              : 1987 Кбит/сек
Программа кодирования                    : VirtualDubMod 1.5.10.3 | www.virtualdub-fr.org || (build 2550/release)
Библиотека кодирования                   : VirtualDubMod build 2550/release

Видео
Идентификатор                            : 0
Формат                                   : MPEG-4 Visual
Профиль формата                          : Advanced Simple@L5
Параметр BVOP формата                    : 2
Параметр QPel формата                    : Нет
Параметр GMC формата                     : Без точки перехода
Параметр матрицы формата                 : Default (H.263)
Идентификатор кодека                     : XVID
Идентификатор кодека/Подсказка           : XviD
Продолжительность                        : 1 ч. 37 м.
Битрейт                                  : 1589 Кбит/сек
Ширина                                   : 720 пикселей
Высота                                   : 304 пикселя
Соотношение сторон                       : 2,35:1
Частота кадров                           : 23,976 кадра/сек
Цветовое пространство                    : YUV
Субдискретизация насыщенности            : 4:2:0
Битовая глубина                          : 8 бит
Тип развёртки                            : Прогрессивная
Метод сжатия                             : С потерями
Бит/(Пиксели*Кадры)                      : 0.303
Размер потока                            : 1,09 Гбайт (80%)
Библиотека кодирования                   : XviD 66

Аудио #1
Идентификатор                            : 1
Формат                                   : MPEG Audio
Версия формата                           : Version 1
Профиль формата                          : Layer 3
Идентификатор кодека                     : 55
Идентификатор кодека/Подсказка           : MP3
Продолжительность                        : 1 ч. 37 м.
Вид битрейта                             : Постоянный
Битрейт                                  : 192 Кбит/сек
Каналы                                   : 2 канала
Частота                                  : 44,1 КГц
Метод сжатия                             : С потерями
Размер потока                            : 134 Мбайт (10%)
Выравнивание                             : Разделение по промежуткам
Продолжительность промежутка             : 42  мс. (1,00 видеокадр)
Время предзагрузки промежутка            : 500  мс.

Аудио #2
Идентификатор                            : 2
Формат                                   : MPEG Audio
Версия формата                           : Version 1
Профиль формата                          : Layer 3
Режим                                    : Joint stereo
Расширение режима                        : MS Stereo
Идентификатор кодека                     : 55
Идентификатор кодека/Подсказка           : MP3
Продолжительность                        : 1 ч. 37 м.
Вид битрейта                             : Постоянный
Битрейт                                  : 192 Кбит/сек
Каналы                                   : 2 канала
Частота                                  : 44,1 КГц
Метод сжатия                             : С потерями
Размер потока                            : 134 Мбайт (10%)
Выравнивание                             : Разделение по промежуткам
Продолжительность промежутка             : 42  мс. (1,00 видеокадр)
Время предзагрузки промежутка            : 500  мс.
Библиотека кодирования                   : LAME3.99r
Настройки программы                      : -m j -V 4 -q 5 -lowpass 18.6 -b 192
Скриншоты:


Смотреть Online

Детали торрента:
Название:#Хоррор / #Horror (2015) HDRip [VO]
Дата добавления:16 Фев 2016 19:25:15
Размер:1,36 GB
Раздают:1
Качают:0
Форум:Зарубежные Фильмы (HD*Rip/LQ, DVDRip, SATRip, VHSRip)

All rights reserved © 2015-2019