TORRENTS45.XYZ

Скачать Голоса большой страны (2016) WEB-DL [H.264/1080p-LQ]


Голоса большой страны (2016) WEB-DL [H.264/1080p-LQ]
Производство: Россия / Enjoy Movies
Жанр: Мьюзикл, Комедия, Мелодрама

Режиссер: Таир Мамедов
Продюсер: Антон Беляев, Владимир Поляков, Виктория Лихтина
Актеры: Алена Тойминцева, Андрей Гризли, Егор Сесарев, Тина Кузнецова, Антон Беляев, Мариам Мерабова, Ярослав Дронов, Илья Киреев, Виктория Жук, Анжелика Фролова

Описание:
В каждом уголке нашей огромной родины есть талантливые люди, достойные признания и славы. Они слетаются в столицу и принимают участие в популярных телевизионных шоу. Но свет софитов гаснет, а жизнь продолжается. И не так, как им это виделось. Каждому из наших героев — юных и взрослых, амбициозных и скромных, одиноких и влюбленных — придется пройти через многие испытания. Их ждут взлеты и падения, встречи и расставания, дружба и предательство. Но в итоге они станут одной большой командой, семьей, объединившей разных людей из самых отдаленных городков нашей большой страны, во имя музыки, таланта и, конечно же, любви!


Дата премьеры в России: 7 января 2016, «Каропрокат»

Продолжительность: 01:41:09
Качество видео: WEB-DL 1080p-LQ
Перевод: Не требуется (русский) iTunes
Вид субтитров: Отсутствуют

Видео: AVC/H.264, 1912x800, ~4434 kbps
Аудио: AC3, 6 ch, 384 kbps
Семпл: Скачать

Mediainfo:

Код:

Общее
Уникальный идентификатор                 : 191216066293534487211411993918832052675 (0x8FDADFF262CA348F864FECEEA56709C3)
Полное имя                               : Golosa.Strany.2016.0.WEB-DL.1080p.torrents45.xyzv
Формат                                   : Matroska
Версия формата                           : Version 4 / Version 2
Размер файла                             : 3,41 Гбайт
Продолжительность                        : 1 ч. 41 м.
Общий поток                              : 4820 Кбит/сек
Дата кодирования                         : UTC 2016-02-13 19:10:26
Программа кодирования                    : mkvmerge v8.3.0 ('Over the Horizon') 64bit
Библиотека кодирования                   : libebml v1.3.1 + libmatroska v1.4.2

Видео
Идентификатор                            : 1
Формат                                   : AVC
Формат/Информация                        : Advanced Video Codec
Профиль формата                          : High@L4
Параметр CABAC формата                   : Да
Параметр ReFrames формата                : 5 кадров
Идентификатор кодека                     : V_MPEG4/ISO/AVC
Продолжительность                        : 1 ч. 41 м.
Битрейт                                  : 4434 Кбит/сек
Ширина                                   : 1912 пикселей
Высота                                   : 800 пикселей
Соотношение сторон                       : 2,40:1
Режим частоты кадров                     : Постоянный
Частота кадров                           : 24,000 кадра/сек
Цветовое пространство                    : YUV
Субдискретизация насыщенности            : 4:2:0
Битовая глубина                          : 8 бит
Тип развёртки                            : Прогрессивная
Бит/(Пиксели*Кадры)                      : 0.121
Размер потока                            : 3,13 Гбайт (92%)
Язык                                     : English
Default                                  : Да
Forced                                   : Нет
colour_range                             : Limited
Основные цвета                           : BT.709
Характеристики трансфера                 : BT.709
Коэффициенты матрицы                     : BT.709

Аудио
Идентификатор                            : 2
Формат                                   : AC-3
Формат/Информация                        : Audio Coding 3
Расширение режима                        : CM (complete main)
Параметр Endianness формата              : Big
Идентификатор кодека                     : A_AC3
Продолжительность                        : 1 ч. 41 м.
Вид битрейта                             : Постоянный
Битрейт                                  : 384 Кбит/сек
Каналы                                   : 6 каналов
Расположение каналов                     : Front: L C R, Side: L R, LFE
Частота                                  : 48,0 КГц
Частота кадров                           : 31,250 кадров/сек (1536 spf)
Метод сжатия                             : С потерями
Размер потока                            : 278 Мбайт (8%)
Язык                                     : Russian
Default                                  : Да
Forced                                   : Нет

Меню
00:00:00.000                             : en:1
00:07:02.000                             : en:2
00:17:47.000                             : en:3
00:29:25.000                             : en:4
00:36:17.000                             : en:5
00:47:10.000                             : en:6
00:58:01.000                             : en:7
01:05:39.000                             : en:8
01:13:43.000                             : en:9
01:26:37.000                             : en:10
01:35:57.000                             : en:11
Скриншоты:


Смотреть Online

Детали торрента:
Название:Голоса большой страны (2016) WEB-DL [H.264/1080p-LQ]
Дата добавления:13 Фев 2016 23:20:23
Размер:3,41 GB
Раздают:2
Качают:0
Форум:Отечественные Фильмы (HD*Rip/LQ, DVDRip, SATRip, VHSRip)

All rights reserved © 2015-2019