TORRENTS45.XYZ

Скачать Хвост и АукцЫон - Опыт постороннего творческого процесса (1995) DVDRip


Хвост и АукцЫон - Опыт постороннего творческого процесса (1995) DVDRip
Год выпуска: 1995
Жанр: Концерт
Описание:
Квартирный концерт Алексея Хвостенко, состоявшийся в Москве 7 марта 1995 года.
Алексею Хвостенко помогают Леонид Фёдоров и Дмитрий Матковский (гитары), Анатолий Герасимов и Николай Рубанов (духовые). Исполняются также несколько песен из репертуара “АукцЫона”. Уникальный видеодокумент середины 1990-х - времени расцвета сотрудничества группы и Хвоста.
Продолжительность: 01:49:46
Треклист:
01. Вступление
02. Опыт постороннего творческого процесса
03. Часы и канва
04. Дерево в саду
05. Игра на флейте
06. Собака
07. Стихи для психоаналитика о русской музыкальной культуре
08. Прощальная песня
09. В. П. Брую
10. Импровизация (Дятел)
11. Вот (басня)

Продолжение треклиста:

12. Часослов
13. Вальс-жалоба Солженицыну
14. Матримониальная песня
15. Ностальгическая песня
16. Орландина
17. Конь унёс любимого
18. История грехопадения Адама
19. Деревенская
20. Рай (Город)
21. Дорога
22. Птица
23. Страшный суд
24. Игра на флейте (лирическая версия)
25. Мы всех лучше

Состав:

Алексей Хвостенко - голос, акустическая гитара
Леонид Фёдоров - голос, акустическая гитара
Дмитрий Матковский - электрическая гитара
Николай Рубанов - бас-кларнет
Анатолий Герасимов - флейта
Наслаждайтесь хорошей музыкой!
Видео: XviD, 336x240, 1326 kbps
Аудио: MP3 2.0, 192 kbps

MediaInfo

Код:

        Полное имя                               : Z:\Концерты\Хвост и АукцЫон - Опыт постороннего творческого процесса.avi
Формат                                   : AVI
Формат/Информация                        : Audio Video Interleave
Размер файла                             : 1,17 Гбайт
Продолжительность                        : 1 ч. 49 м.
Общий поток                              : 1528 Кбит/сек
Программа кодирования                    : FairUse Wizard - http://fairusewizard.com
Библиотека кодирования                   : The best and REALLY easy backup tool

Видео
Идентификатор                            : 0
Формат                                   : MPEG-4 Visual
Профиль формата                          : Advanced Simple@L5
Параметр BVOP формата                    : 1
Параметр QPel формата                    : Нет
Параметр GMC формата                     : Без точки перехода
Параметр матрицы формата                 : Default (MPEG)
Режим смешивания                         : Сжатый битовый поток
Идентификатор кодека                     : XVID
Идентификатор кодека/Подсказка           : XviD
Продолжительность                        : 1 ч. 49 м.
Битрейт                                  : 1326 Кбит/сек
Ширина                                   : 336 пикселей
Высота                                   : 240 пикселей
Соотношение сторон                       : 1,400
Частота кадров                           : 25,000 кадров/сек
Цветовое пространство                    : YUV
Субдискретизация насыщенности            : 4:2:0
Битовая глубина                          : 8 бит
Тип развёртки                            : Прогрессивная
Метод сжатия                             : С потерями
Бит/(Пиксели*Кадры)                      : 0.658
Размер потока                            : 1,02 Гбайт (87%)
Библиотека кодирования                   : XviD 1.2.0.dev47 (UTC 2006-11-01)

Аудио
Идентификатор                            : 1
Формат                                   : MPEG Audio
Версия формата                           : Version 1
Профиль формата                          : Layer 3
Режим                                    : Joint stereo
Расширение режима                        : MS Stereo
Идентификатор кодека                     : 55
Идентификатор кодека/Подсказка           : MP3
Продолжительность                        : 1 ч. 49 м.
Вид битрейта                             : Постоянный
Битрейт                                  : 192 Кбит/сек
Каналы                                   : 2 канала
Частота                                  : 48,0 КГц
Метод сжатия                             : С потерями
Размер потока                            : 151 Мбайт (13%)
Выравнивание                             : Соединение по промежуткам
Продолжительность промежутка             : 40  мс. (1,00 видеокадр)
Время предзагрузки промежутка            : 504  мс.         
Скриншоты:


Детали торрента:
Название:Хвост и АукцЫон - Опыт постороннего творческого процесса (1995) DVDRip
Дата добавления:20 Сен 2008 19:22:29
Размер:1,17 GB
Раздают:1
Качают:0
Форум:Концерты

All rights reserved © 2015-2018