TORRENTS45.XYZ

Скачать Несмотря ни на что / Against All Odds (1984) DVDRip [H.264] [VO]


Несмотря ни на что / Against All Odds (1984) DVDRip [H.264]
Производство: США / Columbia Pictures Corporation, Columbia-Delphi Productions, New Visions Pictures
Жанр: Боевик, Триллер, Драма, Мелодрама, Криминал, Приключения

Режиссер: Тейлор Хэкфорд
Актеры: Рэйчел Уорд, Джефф Бриджес, Джеймс Вудс, Алекс Кэррас, Джейн Грир, Ричард Уидмарк, Дориан Хэрвуд, Свузи Кёрц, Сол Рубинек, Пэт Корли

Описание:
Профессиональный игрок лос-анджелесской футбольной команды Терри Броган остался без работы — возрастной ценз! Вслед за работой испарились и деньги. Случайная встреча с бывшим приятелем Джейком Уизом, владельцем ночного клуба, была, словно подарок судьбы.
Джейк предложил бывшему футболисту «временную работу» за весьма щедрое вознаграждение. Нужно всего лишь отыскать сумасбродную подружку Уиза, Джесси, удравшую в Мексику. И Терри отправился на поиски беглянки…



Продолжительность: 02:01:22
Качество видео: DVDRip
Перевод: Одноголосый закадровый, любительский
Субтитры: Отсутствуют

Видео: AVC/H.264, 720x400, ~1754 Kbps
Аудио: AC3, 2 ch, 192 Kbps

Mediainfo:

Код:

General
Unique ID                                : 231178573084355748325237057838778052722 (0xADEB5FA6E57C43A7BE707E4AD00A7072)
Complete name                            : F:\Downloads\Несмотря ни на что.mkv
Format                                   : Matroska
Format version                           : Version 4 / Version 2
File size                                : 1.65 GiB
Duration                                 : 2h 1mn
Overall bit rate                         : 1 948 Kbps
Encoded date                             : UTC 2016-02-06 00:54:17
Writing application                      : mkvmerge v7.0.0 ('Where We Going') 32bit built on Jun  9 2014 15:08:34
Writing library                          : libebml v1.3.0 + libmatroska v1.4.1
DURATION                                 : 02:01:22.272000000
NUMBER_OF_FRAMES                         : 227571
NUMBER_OF_BYTES                          : 174774528
_STATISTICS_WRITING_APP                  : mkvmerge v7.0.0 ('Where We Going') 32bit built on Jun  9 2014 15:08:34
_STATISTICS_WRITING_DATE_UTC             : 2016-02-06 00:54:17
_STATISTICS_TAGS                         : BPS DURATION NUMBER_OF_FRAMES NUMBER_OF_BYTES

Video
ID                                       : 1
Format                                   : AVC
Format/Info                              : Advanced Video Codec
Format profile                           : High@L3.1
Format settings, CABAC                   : Yes
Format settings, ReFrames                : 8 frames
Codec ID                                 : V_MPEG4/ISO/AVC
Duration                                 : 2h 1mn
Bit rate                                 : 1 754 Kbps
Width                                    : 720 pixels
Height                                   : 400 pixels
Display aspect ratio                     : 16:9
Frame rate mode                          : Constant
Frame rate                               : 23.976 fps
Color space                              : YUV
Chroma subsampling                       : 4:2:0
Bit depth                                : 8 bits
Scan type                                : Progressive
Bits/(Pixel*Frame)                       : 0.254
Stream size                              : 1.46 GiB (88%)
Title                                    : Against All Odds
Writing library                          : x264 core 125 r2208 d9d2288
Encoding settings                        : cabac=1 / ref=8 / deblock=1:-1:-1 / analyse=0x3:0x133 / me=umh / subme=9 / psy=1 / psy_rd=1.00:0.10 / mixed_ref=1 / me_range=32 / chroma_me=1 / trellis=2 / 8x8dct=1 / cqm=0 / deadzone=21,11 / fast_pskip=0 / chroma_qp_offset=-3 / threads=6 / lookahead_threads=1 / sliced_threads=0 / nr=0 / decimate=1 / interlaced=0 / bluray_compat=0 / constrained_intra=0 / bframes=3 / b_pyramid=2 / b_adapt=2 / b_bias=0 / direct=3 / weightb=1 / open_gop=0 / weightp=2 / keyint=250 / keyint_min=25 / scenecut=40 / intra_refresh=0 / rc_lookahead=60 / rc=2pass / mbtree=1 / bitrate=1754 / ratetol=1.0 / qcomp=0.60 / qpmin=0 / qpmax=69 / qpstep=4 / cplxblur=20.0 / qblur=0.5 / ip_ratio=1.40 / aq=1:1.00
Language                                 : English
Default                                  : Yes
Forced                                   : No

Audio
ID                                       : 2
Format                                   : AC-3
Format/Info                              : Audio Coding 3
Mode extension                           : CM (complete main)
Format settings, Endianness              : Big
Codec ID                                 : A_AC3
Duration                                 : 2h 1mn
Bit rate mode                            : Constant
Bit rate                                 : 192 Kbps
Channel(s)                               : 2 channels
Channel positions                        : Front: L R
Sampling rate                            : 48.0 KHz
Bit depth                                : 16 bits
Compression mode                         : Lossy
Stream size                              : 167 MiB (10%)
Title                                    : Одноголосый закадровый
Language                                 : Russian
Default                                  : Yes
Forced                                   : No
Скриншоты:

Дополнительные скриншоты:



Смотреть Online

http://moonwalk.cc/video/3beb28e3d8fb9b80/iframe
Детали торрента:
Название:Несмотря ни на что / Against All Odds (1984) DVDRip [H.264] [VO]
Дата добавления:06 Фев 2016 04:23:06
Размер:1,65 GB
Раздают:
Качают:2
Форум:Старые Зарубежные Фильмы (HD*Rip/LQ, DVDRip, SATRip, VHSRip)

All rights reserved © 2015-2018