TORRENTS45.XYZ

Скачать Экспириенс (2015) SATRip [H.264]


Экспириенс (2015) SATRip
Производство: Россия / А.Т.К.-Студио
Жанр: Драма

Режиссер: Евгений Татаров
Актеры: Кирилл Жандаров, Галина Сумина, Юрий Елагин, Ирина Ларионова, Владимир Меньшов, Евгений Леонов-Гладышев, Александр Тютрюмов, Ирина Яковлева, Владимир Матвеев, Георгий Пицхелаури, Сергей Рост, Андрей Шимко, Анна Королёва, Алексей Васильев, Яков Петров, Михаил Соловьев, Анна Тютрюмова, Евгений Татаров, Будэрдэнэ Энхбат, Никита Маркеев, Анастасия Чистякова

Описание:
Молодой учёный на пороге сенсационного открытия. Его программа по коррекции памяти обещает навсегда избавить людей от негативных воспоминаний. Успех проекта приносит его создателю славу, деньги и. … осознание оборотной стороны вмешательства в жизненный опыт человека.


Дата премьеры в России: 5 ноября 2015, «АТК-Студио»

Продолжительность: 01:29:37
Качество видео: SATRip-AVC
Перевод: Не требуется (язык русский)
Субтитры: Отсутствуют

Видео: AVC, 720x288 (2.500), 25.000 fps, 1 991 Kbps (0.384 bit/pixel)
Аудио: AC-3, 48.0 KHz, 2 ch, 192 Kbps, CBR

MediaInfo:

Код: выделить все

Общее
Уникальный идентификатор                 : 223265793119377653074360745564979742683 (0xA7F76D7AA4005BCBA819DF0188F247DB)
Полное имя                               : C:\NNM\Экспириенс\Ekspiriens 2015 SATRip AVC.mkv
Формат                                   : Matroska
Версия формата                           : Version 2
Размер файла                             : 1,37 Гбайт
Продолжительность                        : 1 ч. 29 м.
Общий поток                              : 2185 Кбит/сек
Дата кодирования                         : UTC 2016-01-21 23:26:40
Программа кодирования                    : mkvmerge v6.1.0 ('Old Devil') built on Mar  4 2013 09:10:42
Библиотека кодирования                   : libebml v1.3.0 + libmatroska v1.4.0

Видео
Идентификатор                            : 1
Формат                                   : AVC
Формат/Информация                        : Advanced Video Codec
Профиль формата                          : High@L2.2
Параметр CABAC формата                   : Да
Параметр ReFrames формата                : 9 кадров
Идентификатор кодека                     : V_MPEG4/ISO/AVC
Продолжительность                        : 1 ч. 29 м.
Битрейт                                  : 1991 Кбит/сек
Ширина                                   : 720 пикселей
Высота                                   : 288 пикселей
Соотношение сторон                       : 2,500
Частота кадров                           : 25,000 кадров/сек
Цветовое пространство                    : YUV
Субдискретизация насыщенности            : 4:2:0
Битовая глубина                          : 8 бит
Тип развёртки                            : Прогрессивная
Бит/(Пиксели*Кадры)                      : 0.384
Размер потока                            : 1,22 Гбайт (89%)
Библиотека кодирования                   : x264 core 130 r2273 b3065e6
Настройки программы                      : cabac=1 / ref=9 / deblock=1:-3:-3 / analyse=0x3:0x133 / me=umh / subme=9 / psy=1 / psy_rd=1.00:0.15 / mixed_ref=1 / me_range=32 / chroma_me=1 / trellis=2 / 8x8dct=1 / cqm=0 / deadzone=21,11 / fast_pskip=0 / chroma_qp_offset=-3 / threads=3 / lookahead_threads=1 / sliced_threads=0 / nr=0 / decimate=1 / interlaced=0 / bluray_compat=0 / constrained_intra=0 / bframes=9 / b_pyramid=2 / b_adapt=2 / b_bias=0 / direct=1 / weightb=1 / open_gop=0 / weightp=2 / keyint=250 / keyint_min=25 / scenecut=40 / intra_refresh=0 / rc=2pass / mbtree=0 / bitrate=1991 / ratetol=1.0 / qcomp=0.60 / qpmin=0 / qpmax=69 / qpstep=4 / cplxblur=20.0 / qblur=0.5 / ip_ratio=1.40 / pb_ratio=1.30 / aq=2:1.00
Default                                  : Да
Forced                                   : Нет
Основные цвета                           : BT.470-6 System B, BT.470-6 System G, BT.601-6 625, BT.1358 625, BT.1700 625 PAL, BT.1700 625 SECAM
Характеристики трансфера                 : BT.470-6 System B, BT.470-6 System G
Коэффициенты матрицы                     : BT.470-6 System B, BT.470-6 System G, BT.601-6 625, BT.1358 625, BT.1700 625 PAL, BT.1700 625 SECAM, IEC 61966-2-4 601

Аудио
Идентификатор                            : 2
Формат                                   : AC-3
Формат/Информация                        : Audio Coding 3
Расширение режима                        : CM (complete main)
Идентификатор кодека                     : A_AC3
Продолжительность                        : 1 ч. 29 м.
Вид битрейта                             : Постоянный
Битрейт                                  : 192 Кбит/сек
Каналы                                   : 2 канала
Расположение каналов                     : Front: L R
Частота                                  : 48,0 КГц
Битовая глубина                          : 16 бит
Метод сжатия                             : С потерями
Размер потока                            : 123 Мбайт (9%)
Default                                  : Да
Forced                                   : Нет
Скриншоты:

Смотреть Online

http://37.220.36.15/video/fae0add411771d9e/iframe
Детали торрента:
Название:Экспириенс (2015) SATRip [H.264]
Дата добавления:30 Янв 2016 09:25:45
Размер:1,37 GB
Раздают:
Качают:0
Форум:Отечественные Фильмы (HD*Rip/LQ, DVDRip, SATRip, VHSRip)

All rights reserved © 2015-2018