TORRENTS45.XYZ

Скачать VA - 10 CORSO COMO – Love 3 (2004) 3CD Box [FLAC|Lossless|tracks + .cue] <Indian Classical, Samba, Bossa Nova>


VA - 10 CORSO COMO – Love 3 (2004) 3CD Box
Год: 2004
Жанр: Indian Classical, Samba, Bossa Nova, Indie Rock
Издание: Irma – IRM 812 CD
Продолжительность: 03:24:48

Источник (релизер): blandrew®

Кодек: FLAC
Битрейт: Lossless
Тип рипа: tracks + .cue

CD1-Body:

Продолжительность: 01:05:03

Треклист:
01. Mauro Pagani - Jamin-A (3:25)
02. Yasmin Levy - De Edad De Quinze Anyos (4:47)
03. Amparanoia - Don't Leave Me Now (3:57)
04. Marvin Gaye - Nature Boy (2:48)
05. Nina Simone - I Put A Spell On You (2:33)
06. Etta James - Rock Me Baby (4:17)
07. Clarence Carter - Light My Fire (2:49)
08. Percy Sledge - When A Man Loves A Woman (2:49)
09. Aretha Franklin - I Say A Little Prayer (3:31)
10. James Brown - It's A Man's Man's Man's World (2:46)
11. Otis Redding - I've Been Loving You Too Long (3:10)
12. Sam & Dave - Soul Man (2:56)
13. Wilson Pickett - Hey Jude (4:03)
14. Santana - Black Magic Woman (5:18)
15. Guesch Patti - Etienne (4:05)
16. Daniel Lanois - Beatrice (4:18)
17. Marianne Faithfull - Crazy Love (4:00)
18. Duke Ellington - Solitude (3:25)

Отчёт ЕАС:

Код:

Exact Audio Copy V1.1 from 23. June 2015

EAC extraction logfile from 24. January 2016, 11:37

Various Artists / 10 Corso Como - Love 3_Body

Used drive  : ASUS    BW-12D1S-U   Adapter: 1  ID: 1

Read mode               : Secure
Utilize accurate stream : Yes
Defeat audio cache      : Yes
Make use of C2 pointers : No

Read offset correction                      : 667
Overread into Lead-In and Lead-Out          : No
Fill up missing offset samples with silence : Yes
Delete leading and trailing silent blocks   : No
Null samples used in CRC calculations       : Yes
Used interface                              : Native Win32 interface for Win NT & 2000
Gap handling                                : Appended to previous track

Used output format              : User Defined Encoder
Selected bitrate                : 768 kBit/s
Quality                         : High
Add ID3 tag                     : No
Command line compressor         : D:\Program Files (x86)\Exact Audio Copy\Flac\flac.exe
Additional command line options : -8 -V -T "TITLE=%title%" -T "ARTIST=%artist%" -T "ALBUMARTIST=%albumartist%" -T "ALBUM=%albumtitle%" -T "DATE=%year%" -T "TRACKNUMBER=%tracknr%" -T "TRACKTOTAL=%numtracks%" -T "GENRE=%genre%" -T "COMMENT=%comment%" -T "PERFORMER=%albuminterpret%" -T "COMPOSER=%composer%" %source% -o %dest%

TOC of the extracted CD

     Track |   Start  |  Length  | Start sector | End sector
    ---------------------------------------------------------
        1  |  0:00.00 |  3:25.25 |         0    |    15399
        2  |  3:25.25 |  4:47.45 |     15400    |    36969
        3  |  8:12.70 |  3:57.17 |     36970    |    54761
        4  | 12:10.12 |  2:48.65 |     54762    |    67426
        5  | 14:59.02 |  2:33.41 |     67427    |    78942
        6  | 17:32.43 |  4:17.44 |     78943    |    98261
        7  | 21:50.12 |  2:49.28 |     98262    |   110964
        8  | 24:39.40 |  2:49.60 |    110965    |   123699
        9  | 27:29.25 |  3:31.06 |    123700    |   139530
       10  | 31:00.31 |  2:46.13 |    139531    |   151993
       11  | 33:46.44 |  3:10.13 |    151994    |   166256
       12  | 36:56.57 |  2:56.25 |    166257    |   179481
       13  | 39:53.07 |  4:03.12 |    179482    |   197718
       14  | 43:56.19 |  5:18.12 |    197719    |   221580
       15  | 49:14.31 |  4:05.73 |    221581    |   240028
       16  | 53:20.29 |  4:18.21 |    240029    |   259399
       17  | 57:38.50 |  4:00.18 |    259400    |   277417
       18  | 61:38.68 |  3:25.05 |    277418    |   292797

Track  1

     Filename D:\Video&Music&Books\2004 - 10 Corso Como - Love 3\CD1-Body\01.Mauro Pagani-Jamin-A.wav

     Pre-gap length  0:00:02.00

     Peak level 99.3 %
     Extraction speed 4.2 X
     Track quality 100.0 %
     Test CRC 03979350
     Copy CRC 03979350
     Accurately ripped (confidence 1)  [64E99FA4]  (AR v1)
     Copy OK

Track  2

     Filename D:\Video&Music&Books\2004 - 10 Corso Como - Love 3\CD1-Body\02.Yasmin Levy-De Edad De Quinze Anyos.wav

     Pre-gap length  0:00:00.15

     Peak level 99.4 %
     Extraction speed 4.8 X
     Track quality 100.0 %
     Test CRC 6513F88B
     Copy CRC 6513F88B
     Accurately ripped (confidence 1)  [B84C13D9]  (AR v1)
     Copy OK

Track  3

     Filename D:\Video&Music&Books\2004 - 10 Corso Como - Love 3\CD1-Body\03.Amparanoia-Don't Leave Me Now.wav

     Pre-gap length  0:00:01.37

     Peak level 99.4 %
     Extraction speed 5.1 X
     Track quality 100.0 %
     Test CRC 3330EF96
     Copy CRC 3330EF96
     Accurately ripped (confidence 1)  [1484DE6D]  (AR v1)
     Copy OK

Track  4

     Filename D:\Video&Music&Books\2004 - 10 Corso Como - Love 3\CD1-Body\04.Marvin Gaye-Nature Boy.wav

     Pre-gap length  0:00:00.60

     Peak level 99.4 %
     Extraction speed 5.1 X
     Track quality 100.0 %
     Test CRC 754E13C1
     Copy CRC 754E13C1
     Accurately ripped (confidence 1)  [0DE744A4]  (AR v1)
     Copy OK

Track  5

     Filename D:\Video&Music&Books\2004 - 10 Corso Como - Love 3\CD1-Body\05.Nina Simone-I Put A Spell On You.wav

     Pre-gap length  0:00:01.00

     Peak level 99.4 %
     Extraction speed 5.2 X
     Track quality 100.0 %
     Test CRC CCE33270
     Copy CRC CCE33270
     Accurately ripped (confidence 1)  [458D3325]  (AR v1)
     Copy OK

Track  6

     Filename D:\Video&Music&Books\2004 - 10 Corso Como - Love 3\CD1-Body\06.Etta James-Rock Me Baby.wav

     Pre-gap length  0:00:01.00

     Peak level 99.4 %
     Extraction speed 5.9 X
     Track quality 100.0 %
     Test CRC 51C72866
     Copy CRC 51C72866
     Accurately ripped (confidence 1)  [76058C9C]  (AR v1)
     Copy OK

Track  7

     Filename D:\Video&Music&Books\2004 - 10 Corso Como - Love 3\CD1-Body\07.Clarence Carter-Light My Fire.wav

     Pre-gap length  0:00:00.38

     Peak level 97.3 %
     Extraction speed 5.8 X
     Track quality 100.0 %
     Test CRC 18EAEF18
     Copy CRC 18EAEF18
     Accurately ripped (confidence 1)  [16ACD5A4]  (AR v1)
     Copy OK

Track  8

     Filename D:\Video&Music&Books\2004 - 10 Corso Como - Love 3\CD1-Body\08.Percy Sledge-When A Man Loves A Woman.wav

     Pre-gap length  0:00:00.60

     Peak level 97.6 %
     Extraction speed 5.9 X
     Track quality 100.0 %
     Test CRC E53535A2
     Copy CRC E53535A2
     Accurately ripped (confidence 1)  [9610F5B2]  (AR v1)
     Copy OK

Track  9

     Filename D:\Video&Music&Books\2004 - 10 Corso Como - Love 3\CD1-Body\09.Aretha Franklin-I Say A Little Prayer.wav

     Pre-gap length  0:00:01.00

     Peak level 99.4 %
     Extraction speed 6.3 X
     Track quality 100.0 %
     Test CRC 5862104F
     Copy CRC 5862104F
     Accurately ripped (confidence 1)  [443B7696]  (AR v1)
     Copy OK

Track 10

     Filename D:\Video&Music&Books\2004 - 10 Corso Como - Love 3\CD1-Body\10.James Brown-It's A Man's Man's Man's World.wav

     Pre-gap length  0:00:01.00

     Peak level 99.2 %
     Extraction speed 6.3 X
     Track quality 100.0 %
     Test CRC 9F8BA1AE
     Copy CRC 9F8BA1AE
     Accurately ripped (confidence 1)  [DFE41F6B]  (AR v1)
     Copy OK

Track 11

     Filename D:\Video&Music&Books\2004 - 10 Corso Como - Love 3\CD1-Body\11.Otis Redding-I've Been Loving You Too Long.wav

     Pre-gap length  0:00:01.00

     Peak level 99.4 %
     Extraction speed 5.6 X
     Track quality 100.0 %
     Test CRC 472A09F2
     Copy CRC 472A09F2
     Accurately ripped (confidence 1)  [BBB9162E]  (AR v1)
     Copy OK

Track 12

     Filename D:\Video&Music&Books\2004 - 10 Corso Como - Love 3\CD1-Body\12.Sam & Dave-Soul Man.wav

     Pre-gap length  0:00:00.45

     Peak level 99.4 %
     Extraction speed 6.2 X
     Track quality 100.0 %
     Test CRC BAF76F49
     Copy CRC BAF76F49
     Accurately ripped (confidence 1)  [EAAE8997]  (AR v1)
     Copy OK

Track 13

     Filename D:\Video&Music&Books\2004 - 10 Corso Como - Love 3\CD1-Body\13.Wilson Pickett-Hey Jude.wav

     Pre-gap length  0:00:01.37

     Peak level 99.4 %
     Extraction speed 7.2 X
     Track quality 100.0 %
     Test CRC B7C2EB02
     Copy CRC B7C2EB02
     Accurately ripped (confidence 1)  [275A031C]  (AR v1)
     Copy OK

Track 14

     Filename D:\Video&Music&Books\2004 - 10 Corso Como - Love 3\CD1-Body\14.Santana-Black Magic Woman.wav

     Pre-gap length  0:00:00.60

     Peak level 99.4 %
     Extraction speed 7.6 X
     Track quality 100.0 %
     Test CRC 9481BF2C
     Copy CRC 9481BF2C
     Accurately ripped (confidence 1)  [72E24D3C]  (AR v1)
     Copy OK

Track 15

     Filename D:\Video&Music&Books\2004 - 10 Corso Como - Love 3\CD1-Body\15.Guesch Patti-Etienne.wav

     Pre-gap length  0:00:01.15

     Peak level 99.4 %
     Extraction speed 7.5 X
     Track quality 100.0 %
     Test CRC F8B7AF4A
     Copy CRC F8B7AF4A
     Accurately ripped (confidence 1)  [B1CABAEA]  (AR v1)
     Copy OK

Track 16

     Filename D:\Video&Music&Books\2004 - 10 Corso Como - Love 3\CD1-Body\16.Daniel Lanois-Beatrice.wav

     Pre-gap length  0:00:00.15

     Peak level 99.4 %
     Extraction speed 6.9 X
     Track quality 99.9 %
     Test CRC 2FAB6810
     Copy CRC 2FAB6810
     Accurately ripped (confidence 1)  [D9FCC3AC]  (AR v1)
     Copy OK

Track 17

     Filename D:\Video&Music&Books\2004 - 10 Corso Como - Love 3\CD1-Body\17.Marianne Faithfull-Crazy Love.wav

     Pre-gap length  0:00:00.15

     Peak level 99.4 %
     Extraction speed 7.8 X
     Track quality 100.0 %
     Test CRC 54F81AEA
     Copy CRC 54F81AEA
     Accurately ripped (confidence 1)  [81EF3E83]  (AR v1)
     Copy OK

Track 18

     Filename D:\Video&Music&Books\2004 - 10 Corso Como - Love 3\CD1-Body\18.Duke Ellington-Solitude.wav

     Pre-gap length  0:00:00.38

     Peak level 96.3 %
     Extraction speed 7.7 X
     Track quality 100.0 %
     Test CRC 898F0F23
     Copy CRC 898F0F23
     Accurately ripped (confidence 1)  [A5436099]  (AR v1)
     Copy OK

All tracks accurately ripped

No errors occurred

End of status report

---- CUETools DB Plugin V2.1.6

[CTDB TOCID: 1Hpy04hRXsJ9t4QM06YGFe8Kl8w-] disk not present in database
Submit result: 1Hpy04hRXsJ9t4QM06YGFe8Kl8w- has been uploaded

==== Log checksum B2B88C6A01423FA3CB464F5588E39B02AAB76E2466E0384AF406B42DE7837348 ====

Отчёт auCDtect Task manager:

Код:

-----------------------

DON'T MODIFY THIS FILE

-----------------------

PERFORMER: auCDtect Task Manager, ver. 1.6.0 RC1 build 1.6.0.1
Copyright (c) 2008-2010 y-soft. All rights reserved
http://y-soft.org

ANALYZER: auCDtect: CD records authenticity detector, version 0.8.2
Copyright (c) 2004 Oleg Berngardt. All rights reserved.
Copyright (c) 2004 Alexander Djourik. All rights reserved.

FILE: 18.Duke Ellington-Solitude.flac
  Size: 10977756 Hash: 81072A2669A25E81B717A763B9970CB3 Accuracy: -m0
  Conclusion: MPEG 93%
  Signature: D795A29FD2FD9A0D2C8A9CA2927E0FB2C88E7BC1
FILE: 17.Marianne Faithfull-Crazy Love.flac
  Size: 26982964 Hash: 70C7E3D599201010B32EAE8C42C74601 Accuracy: -m0
  Conclusion: CDDA 100%
  Signature: 1B9A317EDA4973BC9A9E4419AD92E7C1AEBE3D8A
FILE: 16.Daniel Lanois-Beatrice.flac
  Size: 30124514 Hash: 58119D3A91777B78288F6D9A2F8FE29F Accuracy: -m0
  Conclusion: CDDA 100%
  Signature: 5776A2602ADB403ECB1BE32B55DAF7390EB240D6
FILE: 15.Guesch Patti-Etienne.flac
  Size: 29962432 Hash: 4CA02E1DCA4D42BB6F407371D7E7DC5E Accuracy: -m0
  Conclusion: CDDA 100%
  Signature: B0F889D5C37A0DB3D596490A8402BA998E7CA3C9
FILE: 14.Santana-Black Magic Woman.flac
  Size: 39688510 Hash: 608B6450EEFA86CE26F63953F84D216F Accuracy: -m0
  Conclusion: CDDA 100%
  Signature: 47D9132D1A52AF8AEC53E3E1D08F7A060A4D5383
FILE: 13.Wilson Pickett-Hey Jude.flac
  Size: 30937425 Hash: 00769432259832D8C047EA7EAE7D607B Accuracy: -m0
  Conclusion: CDDA 99%
  Signature: 7DE8C1252CD88EC6F27C557F388E493F137DE321
FILE: 12.Sam & Dave-Soul Man.flac
  Size: 21813508 Hash: 4599F79370DCFE7414B56EEA943B3A33 Accuracy: -m0
  Conclusion: CDDA 100%
  Signature: ABFD97A2A6FAA11FDADFED842D09B34F12A755CC
FILE: 11.Otis Redding-I've Been Loving You Too Long.flac
  Size: 20378119 Hash: 9D79ABCA0997A5966FD84986513AA58B Accuracy: -m0
  Conclusion: CDDA 99%
  Signature: A6C2ED670D08642BE0CF9DCABDE736CEA7E5E0E3
FILE: 10.James Brown-It's A Man's Man's Man's World.flac
  Size: 15203983 Hash: 71DBBDB21A64A84814C6DEB4E7273993 Accuracy: -m0
  Conclusion: CDDA 100%
  Signature: 61EB1FE1E2C905E6604FEF7935827C00CC005BBC
FILE: 09.Aretha Franklin-I Say A Little Prayer.flac
  Size: 24660101 Hash: 399F3CCC1CEF1EF18DE0649A6C174C09 Accuracy: -m0
  Conclusion: CDDA 100%
  Signature: B8CFDAA19D15770CD0F74FEAC9289DBFA5F0BE09
FILE: 08.Percy Sledge-When A Man Loves A Woman.flac
  Size: 15768489 Hash: CBA812817F91F73FF66D230F9ACCDE38 Accuracy: -m0
  Conclusion: CDDA 100%
  Signature: AFECD10454D79E23D37CF927BDD471012E0A8BAD
FILE: 07.Clarence Carter-Light My Fire.flac
  Size: 17752172 Hash: 7926398E1DCF5C89A079AAEED916E7EE Accuracy: -m0
  Conclusion: CDDA 100%
  Signature: 8A04ADDD10509C4A4842466D26A1CC6048E67A2E
FILE: 06.Etta James-Rock Me Baby.flac
  Size: 31133873 Hash: 0162FE1C4DE5DAA30C7C9A4D97A7243F Accuracy: -m0
  Conclusion: CDDA 99%
  Signature: 5DD62B71F507597F36069CDA7CF2ABDBBB97A06F
FILE: 05.Nina Simone-I Put A Spell On You.flac
  Size: 16328755 Hash: 14E034403391B65720CAE7FE41ED1DA7 Accuracy: -m0
  Conclusion: CDDA 100%
  Signature: 83308245CB5B00217D6FEE2D7BDFFAA7C15EEC08
FILE: 04.Marvin Gaye-Nature Boy.flac
  Size: 16585270 Hash: 49E833C508E83A09B0955F9CFECFAF08 Accuracy: -m0
  Conclusion: CDDA 87%
  Signature: BD3E542F51702EE47805DC4FAB36502F12D1754F
FILE: 03.Amparanoia-Don't Leave Me Now.flac
  Size: 27366232 Hash: 3F43B961CB3E0B37ACB0FC87ECF04108 Accuracy: -m0
  Conclusion: CDDA 99%
  Signature: E0CB2D4DC70A339F2DF4BCEF1A5CB1CE50ECD3FF
FILE: 02.Yasmin Levy-De Edad De Quinze Anyos.flac
  Size: 33721399 Hash: 8B65620ABEFDBCEACEFC35284085D089 Accuracy: -m0
  Conclusion: CDDA 100%
  Signature: B787950675549D111ECC73D81413B2AAE5D0C49A
FILE: 01.Mauro Pagani-Jamin-A.flac
  Size: 24680355 Hash: 362907786A7E5497E43B20B348A1981C Accuracy: -m0
  Conclusion: CDDA 100%
  Signature: BE5E1EA34A82721ABA157DB658DC0BA3F422E1FB

Спектрограмма:



CD2-Heart:

Продолжительность: 01:12:24

Треклист:
01. James Carter - 'Round Midnight (6:04)
02. Shirley Horn - I'm In The Mood For Love (2:48)
03. Tim Buckley - Song To The Siren (3:24)
04. Jeff Buckley - Hallelujah (6:51)
05. Annette Peacock - Don't Be Cruel (4:32)
06. Jane Birkin - Couleur Café (4:28)
07. Funk Como Le Gusta - 16 Toneladas (16 Tons) (3:09)
08. The Melody Four - Besame Mucho (3:49)
09. Joao Gilberto - O Grande Amor (5:26)
10. Sakamoto - Morelenbaum - Coracao Vagabundo (4:10)
11. Maria Bethania - Negue, Negue (3:58)
12. Gabriela - Verano En La Pampa (4:18)
13. Lucia Minetti Con Quartetto Musicamorfosi - De Cara A La Pared (4:29)
14. Eliades Ochoa - Volver (4:06)
15. Caetano Veloso - Luna Rossa (5:37)
16. Ute Lemper - September Song (5:09)

Отчёт ЕАС:

Код:

Exact Audio Copy V1.1 from 23. June 2015

EAC extraction logfile from 24. January 2016, 10:15

Various Artists / 10 Corso Como - Love 3

Used drive  : ASUS    BW-12D1S-U   Adapter: 1  ID: 1

Read mode               : Secure
Utilize accurate stream : Yes
Defeat audio cache      : Yes
Make use of C2 pointers : No

Read offset correction                      : 667
Overread into Lead-In and Lead-Out          : No
Fill up missing offset samples with silence : Yes
Delete leading and trailing silent blocks   : No
Null samples used in CRC calculations       : Yes
Used interface                              : Native Win32 interface for Win NT & 2000
Gap handling                                : Appended to previous track

Used output format              : User Defined Encoder
Selected bitrate                : 768 kBit/s
Quality                         : High
Add ID3 tag                     : No
Command line compressor         : D:\Program Files (x86)\Exact Audio Copy\Flac\flac.exe
Additional command line options : -8 -V -T "TITLE=%title%" -T "ARTIST=%artist%" -T "ALBUMARTIST=%albumartist%" -T "ALBUM=%albumtitle%" -T "DATE=%year%" -T "TRACKNUMBER=%tracknr%" -T "TRACKTOTAL=%numtracks%" -T "GENRE=%genre%" -T "COMMENT=%comment%" -T "PERFORMER=%albuminterpret%" -T "COMPOSER=%composer%" %source% -o %dest%

TOC of the extracted CD

     Track |   Start  |  Length  | Start sector | End sector
    ---------------------------------------------------------
        1  |  0:00.00 |  6:04.13 |         0    |    27312
        2  |  6:04.13 |  2:48.32 |     27313    |    39944
        3  |  8:52.45 |  3:24.32 |     39945    |    55276
        4  | 12:17.02 |  6:51.18 |     55277    |    86119
        5  | 19:08.20 |  4:32.60 |     86120    |   106579
        6  | 23:41.05 |  4:28.42 |    106580    |   126721
        7  | 28:09.47 |  3:09.40 |    126722    |   140936
        8  | 31:19.12 |  3:49.06 |    140937    |   158117
        9  | 35:08.18 |  5:26.03 |    158118    |   182570
       10  | 40:34.21 |  4:10.59 |    182571    |   201379
       11  | 44:45.05 |  3:58.45 |    201380    |   219274
       12  | 48:43.50 |  4:18.46 |    219275    |   238670
       13  | 53:02.21 |  4:29.11 |    238671    |   258856
       14  | 57:31.32 |  4:06.63 |    258857    |   277369
       15  | 61:38.20 |  5:37.29 |    277370    |   302673
       16  | 67:15.49 |  5:09.05 |    302674    |   325853

Track  1

     Filename D:\Video&Music&Books\2004 - 10 Corso Como - Love 3\CD2-Heart\01.James Carter-'Round Midnight.wav

     Pre-gap length  0:00:02.00

     Peak level 99.5 %
     Extraction speed 4.4 X
     Track quality 99.9 %
     Test CRC BEB712F4
     Copy CRC BEB712F4
     Accurately ripped (confidence 1)  [E293125E]  (AR v1)
     Copy OK

Track  2

     Filename D:\Video&Music&Books\2004 - 10 Corso Como - Love 3\CD2-Heart\02.Shirley Horn-I'm In The Mood For Love.wav

     Pre-gap length  0:00:01.00

     Peak level 99.4 %
     Extraction speed 4.8 X
     Track quality 100.0 %
     Test CRC 8AA19FFC
     Copy CRC 8AA19FFC
     Accurately ripped (confidence 1)  [846831DD]  (AR v1)
     Copy OK

Track  3

     Filename D:\Video&Music&Books\2004 - 10 Corso Como - Love 3\CD2-Heart\03.Tim Buckley-Song To The Siren.wav

     Pre-gap length  0:00:01.30

     Peak level 96.3 %
     Extraction speed 5.2 X
     Track quality 100.0 %
     Test CRC 88150367
     Copy CRC 88150367
     Accurately ripped (confidence 1)  [F51D997A]  (AR v1)
     Copy OK

Track  4

     Filename D:\Video&Music&Books\2004 - 10 Corso Como - Love 3\CD2-Heart\04.Jeff Buckley-Hallelujah.wav

     Pre-gap length  0:00:00.60

     Peak level 99.4 %
     Extraction speed 6.1 X
     Track quality 100.0 %
     Test CRC 57F8A1D3
     Copy CRC 57F8A1D3
     Accurately ripped (confidence 1)  [CE738813]  (AR v1)
     Copy OK

Track  5

     Filename D:\Video&Music&Books\2004 - 10 Corso Como - Love 3\CD2-Heart\05.Annette Peacock-Don't Be Cruel.wav

     Pre-gap length  0:00:00.38

     Peak level 99.5 %
     Extraction speed 6.3 X
     Track quality 100.0 %
     Test CRC 957CF8B4
     Copy CRC 957CF8B4
     Accurately ripped (confidence 1)  [802C69AE]  (AR v1)
     Copy OK

Track  6

     Filename D:\Video&Music&Books\2004 - 10 Corso Como - Love 3\CD2-Heart\06.Jane Birkin-Couleur Café.wav

     Pre-gap length  0:00:01.37

     Peak level 99.5 %
     Extraction speed 5.9 X
     Track quality 99.9 %
     Test CRC 5085B868
     Copy CRC 5085B868
     Accurately ripped (confidence 1)  [9F5C7D5D]  (AR v1)
     Copy OK

Track  7

     Filename D:\Video&Music&Books\2004 - 10 Corso Como - Love 3\CD2-Heart\07.Funk Como Le Gusta-16 Toneladas (16 Tons).wav

     Pre-gap length  0:00:01.00

     Peak level 99.5 %
     Extraction speed 5.6 X
     Track quality 99.9 %
     Test CRC 228565C0
     Copy CRC 228565C0
     Accurately ripped (confidence 1)  [4CE335F5]  (AR v1)
     Copy OK

Track  8

     Filename D:\Video&Music&Books\2004 - 10 Corso Como - Love 3\CD2-Heart\08.The Melody Four-Besame Mucho.wav

     Pre-gap length  0:00:01.00

     Peak level 99.4 %
     Extraction speed 6.0 X
     Track quality 99.9 %
     Test CRC ECBB634B
     Copy CRC ECBB634B
     Accurately ripped (confidence 1)  [486ED367]  (AR v1)
     Copy OK

Track  9

     Filename D:\Video&Music&Books\2004 - 10 Corso Como - Love 3\CD2-Heart\09.Joao Gilberto-O Grande Amor.wav

     Pre-gap length  0:00:01.00

     Peak level 98.3 %
     Extraction speed 7.3 X
     Track quality 100.0 %
     Test CRC 731BBB86
     Copy CRC 731BBB86
     Accurately ripped (confidence 1)  [523CDFC9]  (AR v1)
     Copy OK

Track 10

     Filename D:\Video&Music&Books\2004 - 10 Corso Como - Love 3\CD2-Heart\10.Sakamoto - Morelenbaum-Coracao Vagabundo.wav

     Pre-gap length  0:00:01.30

     Peak level 98.0 %
     Extraction speed 7.4 X
     Track quality 100.0 %
     Test CRC BF4FB2B7
     Copy CRC BF4FB2B7
     Accurately ripped (confidence 1)  [1F644C82]  (AR v1)
     Copy OK

Track 11

     Filename D:\Video&Music&Books\2004 - 10 Corso Como - Love 3\CD2-Heart\11.Maria Bethania-Negue, Negue.wav

     Pre-gap length  0:00:01.00

     Peak level 99.5 %
     Extraction speed 7.5 X
     Track quality 100.0 %
     Test CRC CBFC898E
     Copy CRC CBFC898E
     Accurately ripped (confidence 1)  [7B993871]  (AR v1)
     Copy OK

Track 12

     Filename D:\Video&Music&Books\2004 - 10 Corso Como - Love 3\CD2-Heart\12.Gabriela-Verano En La Pampa.wav

     Pre-gap length  0:00:01.15

     Peak level 99.5 %
     Extraction speed 6.9 X
     Track quality 99.9 %
     Test CRC 4D2042FB
     Copy CRC 4D2042FB
     Accurately ripped (confidence 1)  [C332FFFF]  (AR v1)
     Copy OK

Track 13

     Filename D:\Video&Music&Books\2004 - 10 Corso Como - Love 3\CD2-Heart\13.Lucia Minetti Con Quartetto Musicamorfosi-De Cara A La Pared.wav

     Pre-gap length  0:00:00.15

     Peak level 99.5 %
     Extraction speed 8.0 X
     Track quality 100.0 %
     Test CRC 1DB0439E
     Copy CRC 1DB0439E
     Accurately ripped (confidence 1)  [591C1895]  (AR v1)
     Copy OK

Track 14

     Filename D:\Video&Music&Books\2004 - 10 Corso Como - Love 3\CD2-Heart\14.Eliades Ochoa-Volver.wav

     Pre-gap length  0:00:01.00

     Peak level 99.5 %
     Extraction speed 8.1 X
     Track quality 100.0 %
     Test CRC DBE9A9B3
     Copy CRC DBE9A9B3
     Accurately ripped (confidence 1)  [D28BF9EF]  (AR v1)
     Copy OK

Track 15

     Filename D:\Video&Music&Books\2004 - 10 Corso Como - Love 3\CD2-Heart\15.Caetano Veloso-Luna Rossa.wav

     Pre-gap length  0:00:01.15

     Peak level 99.4 %
     Extraction speed 8.7 X
     Track quality 100.0 %
     Test CRC 38DD9BD6
     Copy CRC 38DD9BD6
     Accurately ripped (confidence 1)  [78BE9967]  (AR v1)
     Copy OK

Track 16

     Filename D:\Video&Music&Books\2004 - 10 Corso Como - Love 3\CD2-Heart\16.Ute Lemper-September Song.wav

     Pre-gap length  0:00:01.00

     Peak level 99.5 %
     Extraction speed 8.8 X
     Track quality 100.0 %
     Test CRC 41141674
     Copy CRC 41141674
     Accurately ripped (confidence 1)  [FEF6DDE9]  (AR v1)
     Copy OK

All tracks accurately ripped

No errors occurred

End of status report

---- CUETools DB Plugin V2.1.6

[CTDB TOCID: GIQE4lgT2I1PMRFBPr5OMwPGFPU-] disk not present in database
Submit result: GIQE4lgT2I1PMRFBPr5OMwPGFPU- has been uploaded

==== Log checksum 29F1893E3B8E87AB40CF005FA7C93D21F9D9F30971BEA0CBDC48E566A05CA5C0 ====

Отчёт auCDtect Task manager:

Код:

-----------------------

DON'T MODIFY THIS FILE

-----------------------

PERFORMER: auCDtect Task Manager, ver. 1.6.0 RC1 build 1.6.0.1
Copyright (c) 2008-2010 y-soft. All rights reserved
http://y-soft.org

ANALYZER: auCDtect: CD records authenticity detector, version 0.8.2
Copyright (c) 2004 Oleg Berngardt. All rights reserved.
Copyright (c) 2004 Alexander Djourik. All rights reserved.

FILE: 16.Ute Lemper-September Song.flac
  Size: 32557076 Hash: CA3244BA84E173FB5462954C74EF4C4E Accuracy: -m0
  Conclusion: CDDA 100%
  Signature: B822EA9ECD1AC6297AC665E93A5C2FF237DE79C4
FILE: 15.Caetano Veloso-Luna Rossa.flac
  Size: 36766830 Hash: 0AD841241DF1A9F80CEA202E15718343 Accuracy: -m0
  Conclusion: CDDA 100%
  Signature: F27402BE38D10FD0BCDBF50B1A305AE7CA63B259
FILE: 14.Eliades Ochoa-Volver.flac
  Size: 28794199 Hash: 7461967BEFE03D818656EBC42985285D Accuracy: -m0
  Conclusion: CDDA 100%
  Signature: 48B689E6F8CA042AB703092EDE82BA9E976EB6A4
FILE: 13.Lucia Minetti Con Quartetto Musicamorfosi-De Cara A La Pared.flac
  Size: 28487332 Hash: 2A1D493BECFA43A7F6B10F1C7E35E22D Accuracy: -m0
  Conclusion: CDDA 100%
  Signature: FD1EA9DC670DFE6EB514C6A25BA258BFF166A1A7
FILE: 12.Gabriela-Verano En La Pampa.flac
  Size: 29329833 Hash: F8BA31AD8C8544ECA371BD6717EA3F3E Accuracy: -m0
  Conclusion: CDDA 100%
  Signature: D3CD26EF2F862BF9A367F92836F42F9C19F22781
FILE: 11.Maria Bethania-Negue, Negue.flac
  Size: 28323211 Hash: E583E68AE1BF384E37A4470B92D070B0 Accuracy: -m0
  Conclusion: CDDA 100%
  Signature: 738EFB5B2F253CD0DDC74D300C03F74C511FDDE8
FILE: 10.Sakamoto - Morelenbaum-Coracao Vagabundo.flac
  Size: 25414216 Hash: 89792ABA320A0700077704312F791BCA Accuracy: -m0
  Conclusion: CDDA 99%
  Signature: 6C7405894FC5922A85EA620DEAA4F1AC0A3722A1
FILE: 09.Joao Gilberto-O Grande Amor.flac
  Size: 32903303 Hash: BA455EA08DF89C458810F443D2E57C94 Accuracy: -m0
  Conclusion: CDDA 100%
  Signature: C41FE2699C693A7ED973D9056362A2ACBA7039FC
FILE: 08.The Melody Four-Besame Mucho.flac
  Size: 26271726 Hash: CF0FAEF07A3A069FA02D4DB43F277EBD Accuracy: -m0
  Conclusion: CDDA 100%
  Signature: 4AEE240D6FCEFFDCE08658828434AB3D25F792BF
FILE: 07.Funk Como Le Gusta-16 Toneladas (16 Tons).flac
  Size: 20337321 Hash: E71BBCEF584C77D872B3047340855A17 Accuracy: -m0
  Conclusion: CDDA 100%
  Signature: 75D0A502D65504484B49913FF3FC8EE3601B2C1A
FILE: 06.Jane Birkin-Couleur Café.flac
  Size: 28531810 Hash: A1E9C72119524E525EFCD716161DA7FD Accuracy: -m0
  Conclusion: CDDA 100%
  Signature: 35FCC944F604C376788334D30AA06A2A580B464D
FILE: 05.Annette Peacock-Don't Be Cruel.flac
  Size: 31421854 Hash: D4A03D21C7EC36E20D8921B77532390A Accuracy: -m0
  Conclusion: CDDA 100%
  Signature: 053A782F565E6C106C25E8333F85FAA3A0536E25
FILE: 04.Jeff Buckley-Hallelujah.flac
  Size: 35545117 Hash: 3AC11C5FE8D1E4F4A54FA55F1E815336 Accuracy: -m0
  Conclusion: CDDA 100%
  Signature: C623AF017D2FD93CA2CCE4C2435BAA8AC7A300F1
FILE: 03.Tim Buckley-Song To The Siren.flac
  Size: 18018832 Hash: 7B09D007630AE27F65D821C33E4D75CA Accuracy: -m0
  Conclusion: CDDA 100%
  Signature: 169076EA93C360491DFA7574BD5ED63FFB9C0C17
FILE: 02.Shirley Horn-I'm In The Mood For Love.flac
  Size: 18385226 Hash: 8CF18E0E9FF41A0AAFC4C99FD0C1A937 Accuracy: -m0
  Conclusion: CDDA 100%
  Signature: C3962359485756037C2AEC4C87FBE6BA94992938
FILE: 01.James Carter-'Round Midnight.flac
  Size: 35342743 Hash: 5B0174F69E2C7664B53DCD7A1DD7FA82 Accuracy: -m0
  Conclusion: CDDA 100%
  Signature: 48EB9FC5456EE456CC56B093B3952096D999B05A

Спектрограмма:




CD3-Spirit:

Продолжительность: 01:07:21

Треклист:
01. Gusttavo Lima - Balada (3:25)
02. Jack Holiday & B-Case - Feel It! (Radio Mix) [feat. Nico Santos & Tony T.] (3:18)
03. Fraag Malas - No Voy a Parar (3:45)
04. Henry Mendez - Mi Reina (Remix) [feat. Cristian Deluxe] (3:38)
05. Urbano Prodigy - Mi Corazon No Es de Piedra (3:24)
06. Froggy Mix - C’est party! (Willy Fontana & Leo Carro Radio Remix) [feat. Snoop Dogg] (3:06)
07. Carolina Marquez - Get on the Floor (E-Partment Short Mix) [feat. Pitbull & Dale Saunders] (3:24)
08. Mako - Beam (Dannic Radio Mix) [feat. Angel Taylor] (2:50)
09. Adria Ortega - Chicas in the Party (Radio Edit) [feat. Amna] (3:13)
10. David Anthony - Open Up Your Heart (Radio Mix) [feat. Patrick Miller] (3:13)
11. Sergio Mauri & Sysma - Falling Over (Antonio Giacca Radio Edit) (3:25)
12. Fuse ODG - Azonto (Radio Edit) [feat. Tiffany] (3:22)
13. Decai - Cositas de Amor (3:34)
14. Leynor & Lewis - Me Marcharé (3:17)
15. Jose Amor - If You Let Me Go (feat. Lexter) (4:13)
16. Athan D.F. - Riders in the Storm (feat. Jake) (3:15)
17. Joao Neto & Frederico - Le Le Le (Single Version) (2:49)
18. Peter Sax - Saxy (Radio Edit) (3:06)
19. Lylloo - Melodia (Radio Edit Version Internationale) [feat. Egas] (3:30)
20. Otto Le Blanc - Party Deluxe (Radio Edit) [feat. Orry Jackson] (3:19)

Отчёт ЕАС:

Код:

Exact Audio Copy V1.1 from 23. June 2015

EAC extraction logfile from 24. January 2016, 10:52

Various Artists / 10 Corso Como - Love 3_Spiritt

Used drive  : ASUS    BW-12D1S-U   Adapter: 1  ID: 1

Read mode               : Secure
Utilize accurate stream : Yes
Defeat audio cache      : Yes
Make use of C2 pointers : No

Read offset correction                      : 667
Overread into Lead-In and Lead-Out          : No
Fill up missing offset samples with silence : Yes
Delete leading and trailing silent blocks   : No
Null samples used in CRC calculations       : Yes
Used interface                              : Native Win32 interface for Win NT & 2000
Gap handling                                : Appended to previous track

Used output format              : User Defined Encoder
Selected bitrate                : 768 kBit/s
Quality                         : High
Add ID3 tag                     : No
Command line compressor         : D:\Program Files (x86)\Exact Audio Copy\Flac\flac.exe
Additional command line options : -8 -V -T "TITLE=%title%" -T "ARTIST=%artist%" -T "ALBUMARTIST=%albumartist%" -T "ALBUM=%albumtitle%" -T "DATE=%year%" -T "TRACKNUMBER=%tracknr%" -T "TRACKTOTAL=%numtracks%" -T "GENRE=%genre%" -T "COMMENT=%comment%" -T "PERFORMER=%albuminterpret%" -T "COMPOSER=%composer%" %source% -o %dest%

TOC of the extracted CD

     Track |   Start  |  Length  | Start sector | End sector
    ---------------------------------------------------------
        1  |  0:00.00 |  4:54.11 |         0    |    22060
        2  |  4:54.11 |  5:17.51 |     22061    |    45886
        3  | 10:11.62 |  4:55.70 |     45887    |    68081
        4  | 15:07.57 |  4:48.54 |     68082    |    89735
        5  | 19:56.36 |  6:37.06 |     89736    |   119516
        6  | 26:33.42 |  5:36.35 |    119517    |   144751
        7  | 32:10.02 |  6:49.13 |    144752    |   175439
        8  | 38:59.15 |  7:53.66 |    175440    |   210980
        9  | 46:53.06 |  5:01.25 |    210981    |   233580
       10  | 51:54.31 |  6:05.25 |    233581    |   260980
       11  | 57:59.56 |  9:22.71 |    260981    |   303201

Track  1

     Filename D:\Video&Music&Books\2004 - 10 Corso Como - Love 3\CD3-Spirit\01.Nitin Sawhney-Heer.wav

     Pre-gap length  0:00:02.00

     Peak level 99.6 %
     Extraction speed 4.0 X
     Track quality 99.9 %
     Test CRC 3414F5E9
     Copy CRC 3414F5E9
     Accurately ripped (confidence 1)  [4A0E41CA]  (AR v1)
     Copy OK

Track  2

     Filename D:\Video&Music&Books\2004 - 10 Corso Como - Love 3\CD3-Spirit\02.State Of Bengal Vs. Paban Das Bau-Al Keuto Sap.wav

     Pre-gap length  0:00:01.37

     Peak level 99.6 %
     Extraction speed 5.0 X
     Track quality 100.0 %
     Test CRC 943F766F
     Copy CRC 943F766F
     Accurately ripped (confidence 1)  [918F4877]  (AR v1)
     Copy OK

Track  3

     Filename D:\Video&Music&Books\2004 - 10 Corso Como - Love 3\CD3-Spirit\03.United Peace Voices-Buddam Sharanam.wav

     Pre-gap length  0:00:01.00

     Peak level 99.6 %
     Extraction speed 5.4 X
     Track quality 100.0 %
     Test CRC 9F8DD2EE
     Copy CRC 9F8DD2EE
     Accurately ripped (confidence 1)  [5E2BF225]  (AR v1)
     Copy OK

Track  4

     Filename D:\Video&Music&Books\2004 - 10 Corso Como - Love 3\CD3-Spirit\04.Shruti Sadolikar-Sri Jagadamba.wav

     Pre-gap length  0:00:01.00

     Peak level 99.6 %
     Extraction speed 5.8 X
     Track quality 100.0 %
     Test CRC BF3FF7F3
     Copy CRC BF3FF7F3
     Accurately ripped (confidence 1)  [FF89837B]  (AR v1)
     Copy OK

Track  5

     Filename D:\Video&Music&Books\2004 - 10 Corso Como - Love 3\CD3-Spirit\05.Sheila Chandra-Lament Of Mccrimmon - Song Of The Banshee.wav

     Pre-gap length  0:00:00.38

     Peak level 99.5 %
     Extraction speed 5.9 X
     Track quality 99.9 %
     Test CRC 1D803956
     Copy CRC 1D803956
     Accurately ripped (confidence 1)  [C9F2B830]  (AR v1)
     Copy OK

Track  6

     Filename D:\Video&Music&Books\2004 - 10 Corso Como - Love 3\CD3-Spirit\06.Susanne Abbuehl-Mane Na.wav

     Pre-gap length  0:00:00.38

     Peak level 98.2 %
     Extraction speed 6.6 X
     Track quality 100.0 %
     Test CRC E39BF41D
     Copy CRC E39BF41D
     Accurately ripped (confidence 1)  [F13C9D58]  (AR v1)
     Copy OK

Track  7

     Filename D:\Video&Music&Books\2004 - 10 Corso Como - Love 3\CD3-Spirit\07.Shweta Jhaveri-Invocation.wav

     Pre-gap length  0:00:00.38

     Peak level 99.5 %
     Extraction speed 7.1 X
     Track quality 100.0 %
     Test CRC A1AAB836
     Copy CRC A1AAB836
     Accurately ripped (confidence 1)  [BDDA11C9]  (AR v1)
     Copy OK

Track  8

     Filename D:\Video&Music&Books\2004 - 10 Corso Como - Love 3\CD3-Spirit\08.Ustad Sultan Khan With Zakir Hussain-Rajasthani Folk Song.wav

     Pre-gap length  0:00:01.37

     Peak level 99.5 %
     Extraction speed 7.5 X
     Track quality 100.0 %
     Test CRC 624EBADF
     Copy CRC 624EBADF
     Accurately ripped (confidence 1)  [5C6BBC7F]  (AR v1)
     Copy OK

Track  9

     Filename D:\Video&Music&Books\2004 - 10 Corso Como - Love 3\CD3-Spirit\09.Girija Devi With Zakir Hussain-Tappa.wav

     Pre-gap length  0:00:01.37

     Peak level 99.5 %
     Extraction speed 7.5 X
     Track quality 100.0 %
     Test CRC C08F177A
     Copy CRC C08F177A
     Accurately ripped (confidence 1)  [1F8F1AFB]  (AR v1)
     Copy OK

Track 10

     Filename D:\Video&Music&Books\2004 - 10 Corso Como - Love 3\CD3-Spirit\10.Lalgudi Jayaraman-Tillana In Raga Maduvanthi.wav

     Pre-gap length  0:00:01.00

     Peak level 99.5 %
     Extraction speed 7.9 X
     Track quality 100.0 %
     Test CRC DB354BC6
     Copy CRC DB354BC6
     Accurately ripped (confidence 1)  [2CF8ED4A]  (AR v1)
     Copy OK

Track 11

     Filename D:\Video&Music&Books\2004 - 10 Corso Como - Love 3\CD3-Spirit\11.Bismillah Khan-Banarasi Dhun.wav

     Pre-gap length  0:00:01.60

     Peak level 99.5 %
     Extraction speed 8.5 X
     Track quality 100.0 %
     Test CRC 85F03363
     Copy CRC 85F03363
     Accurately ripped (confidence 1)  [6E674B84]  (AR v1)
     Copy OK

All tracks accurately ripped

No errors occurred

End of status report

---- CUETools DB Plugin V2.1.6

[CTDB TOCID: Fff5N06rdvxPSB6gnrFt29xvg9U-] disk not present in database
Submit result: Fff5N06rdvxPSB6gnrFt29xvg9U- has been uploaded

==== Log checksum D8E8436E85389E230B61871DB510145ACABCC604D59D63DE2CFA9AFB3F510D63 ====

Отчёт auCDtect Task manager:

Код:

-----------------------

DON'T MODIFY THIS FILE

-----------------------

PERFORMER: auCDtect Task Manager, ver. 1.6.0 RC1 build 1.6.0.1
Copyright (c) 2008-2010 y-soft. All rights reserved
http://y-soft.org

ANALYZER: auCDtect: CD records authenticity detector, version 0.8.2
Copyright (c) 2004 Oleg Berngardt. All rights reserved.
Copyright (c) 2004 Alexander Djourik. All rights reserved.

FILE: 11.Bismillah Khan-Banarasi Dhun.flac
  Size: 50458192 Hash: C3D5B7DA215DC92571A658B1947E5A52 Accuracy: -m0
  Conclusion: CDDA 100%
  Signature: 3744CE2560F90DBD0FB3896396E21ECE7397D12F
FILE: 10.Lalgudi Jayaraman-Tillana In Raga Maduvanthi.flac
  Size: 39170498 Hash: 51BF0F0E50EFD903E979018F135AC32F Accuracy: -m0
  Conclusion: CDDA 100%
  Signature: 1490DA0E25E011053FED1ADF6FE786058884269E
FILE: 09.Girija Devi With Zakir Hussain-Tappa.flac
  Size: 31260744 Hash: E7A3E54F429619E0786944550A58E4EE Accuracy: -m0
  Conclusion: CDDA 100%
  Signature: 8164C91BEF89349F019852036F33B70DA77093CF
FILE: 08.Ustad Sultan Khan With Zakir Hussain-Rajasthani Folk Song.flac
  Size: 50078613 Hash: 4A6EBCB36A14B189266E0D07DE896653 Accuracy: -m0
  Conclusion: CDDA 100%
  Signature: D5F779E36EEDD99B75587C05671EC3F99302839F
FILE: 07.Shweta Jhaveri-Invocation.flac
  Size: 47877470 Hash: CD1E9FABE17F82C9080BC20F04ED7E2B Accuracy: -m0
  Conclusion: CDDA 100%
  Signature: 24B74CBE87072143C449043C87886C134B1ED73B
FILE: 06.Susanne Abbuehl-Mane Na.flac
  Size: 32054490 Hash: AEA717AF7F0695ED72C38E35F82D363A Accuracy: -m0
  Conclusion: CDDA 100%
  Signature: 09DF81AFC44CE9B884E2D96A761AF5416DDC99BA
FILE: 05.Sheila Chandra-Lament Of Mccrimmon - Song Of The Banshee.flac
  Size: 49332334 Hash: 5AFFFDE7FAF059E74C0BB05E7E9A645A Accuracy: -m0
  Conclusion: CDDA 100%
  Signature: 37C5DD561B2675EE2E54BF77CC06E921FDB23C52
FILE: 04.Shruti Sadolikar-Sri Jagadamba.flac
  Size: 33921962 Hash: CD79F6FB554D6BAF48842F6ABE1F6B5E Accuracy: -m0
  Conclusion: CDDA 100%
  Signature: 7642019DFE390BF23E45FF86681031B046288076
FILE: 03.United Peace Voices-Buddam Sharanam.flac
  Size: 35692018 Hash: C358B1510DC65BDD5A296B923F0BDCFA Accuracy: -m0
  Conclusion: CDDA 100%
  Signature: 227C61E0838D210A61FB79FEF8A14DF271A2CF13
FILE: 02.State Of Bengal Vs. Paban Das Bau-Al Keuto Sap.flac
  Size: 37312648 Hash: 2439712BE3449946C6DEC56799B28EE4 Accuracy: -m0
  Conclusion: CDDA 100%
  Signature: BF8552A278EE3E82A409A16904BF51FA194CB488
FILE: 01.Nitin Sawhney-Heer.flac
  Size: 32187715 Hash: FCA8AE14324CB0CBD43F2AF8F728B220 Accuracy: -m0
  Conclusion: CDDA 99%
  Signature: B5F34C19016DE8CDABC2C90CFB8D66C89C46EA68

Спектрограмма:




Дополнительная информация:

Детали торрента:
Название:VA - 10 CORSO COMO – Love 3 (2004) 3CD Box [FLAC|Lossless|tracks + .cue] <Indian Classical, Samba, Bossa Nova>
Дата добавления:24 Янв 2016 15:03:18
Размер:1,24 GB
Раздают:1
Качают:0
Форум:Folk (Lossless)

All rights reserved © 2015-2018