TORRENTS45.XYZ

Скачать Слоган / Slogan (1969) DVDRip


Слоган / Slogan (1969) DVDRip
Производство: Франция
Жанр: Драма, Комедия

Режиссер: Пьер Грембла
Актеры: Серж Генсбур, Джейн Биркин, Андреа Паризи, Даниэль Желен, Анри-Жан Юэ, Жюльет Берто, Пьер Дорис, Мари-Кристин Булар, Жиль Мийнер, Джеймс Митчелл

Описание:
Серж Фаберже — успешный режиссёр, снимающий рекламные ролики, его работы отмечаются на фестивалях. А его возлюбленная Эвлин никак не может разобраться в своём внутреннем мире — кого она любит, кто ей нужен…



Продолжительность: 01:27:31
Качество видео: DVDRip
Перевод: Многоголосый закадровый

Видео: Xvid, 656x432, ~1784 Кбит/сек
Аудио #1: MP3, 2 ch, 128 Кбит/сек, CBR | Русский
Аудио #2: MP3, 2 ch, 128 Кбит/сек, CBR | Французский

Mediainfo:

Код:

Формат                                   : AVI
Формат/Информация                        : Audio Video Interleave
Размер файла                             : 1,26 Гбайт
Продолжительность                        : 1 ч. 27 м.
Общий поток                              : 2054 Кбит/сек
Программа кодирования                    : VirtualDubMod 1.5.10.2 (build 2540/release)
Библиотека кодирования                   : VirtualDubMod build 2540/release

Видео
Идентификатор                            : 0
Формат                                   : MPEG-4 Visual
Профиль формата                          : Advanced Simple@L5
Параметр BVOP формата                    : 1
Параметр QPel формата                    : Нет
Параметр GMC формата                     : Без точки перехода
Параметр матрицы формата                 : Выборочная
Идентификатор кодека                     : XVID
Идентификатор кодека/Подсказка           : XviD
Продолжительность                        : 1 ч. 27 м.
Битрейт                                  : 1784 Кбит/сек
Ширина                                   : 656 пикселей
Высота                                   : 432 пикселя
Соотношение сторон                       : 3:2
Частота кадров                           : 25,000 кадров/сек
Цветовое пространство                    : YUV
Субдискретизация насыщенности            : 4:2:0
Битовая глубина                          : 8 бит
Тип развёртки                            : Прогрессивная
Метод сжатия                             : С потерями
Бит/(Пиксели*Кадры)                      : 0.252
Размер потока                            : 1,09 Гбайт (87%)
Библиотека кодирования                   : XviD 1.2.0.dev47 (UTC 2006-11-01)

Аудио #1
Идентификатор                            : 1
Формат                                   : MPEG Audio
Версия формата                           : Version 1
Профиль формата                          : Layer 3
Режим                                    : Joint stereo
Расширение режима                        : MS Stereo
Идентификатор кодека                     : 55
Идентификатор кодека/Подсказка           : MP3
Продолжительность                        : 1 ч. 27 м.
Вид битрейта                             : Постоянный
Битрейт                                  : 128 Кбит/сек
Каналы                                   : 2 канала
Частота                                  : 48,0 КГц
Метод сжатия                             : С потерями
Размер потока                            : 80,1 Мбайт (6%)
Выравнивание                             : Соединение по промежуткам
Продолжительность промежутка             : 40  мс. (1,00 видеокадр)
Время предзагрузки промежутка            : 504  мс.
Библиотека кодирования                   : LAME3.90.3

Аудио #2
Идентификатор                            : 2
Формат                                   : MPEG Audio
Версия формата                           : Version 1
Профиль формата                          : Layer 3
Режим                                    : Joint stereo
Расширение режима                        : MS Stereo
Идентификатор кодека                     : 55
Идентификатор кодека/Подсказка           : MP3
Продолжительность                        : 1 ч. 27 м.
Вид битрейта                             : Постоянный
Битрейт                                  : 128 Кбит/сек
Каналы                                   : 2 канала
Частота                                  : 48,0 КГц
Метод сжатия                             : С потерями
Размер потока                            : 80,1 Мбайт (6%)
Выравнивание                             : Соединение по промежуткам
Продолжительность промежутка             : 40  мс. (1,00 видеокадр)
Время предзагрузки промежутка            : 504  мс.
Скриншоты:

Дополнительные скриншоты:



Детали торрента:
Название:Слоган / Slogan (1969) DVDRip
Дата добавления:20 Янв 2016 21:01:47
Размер:1,26 GB
Раздают:
Качают:0
Форум:Авторское кино

All rights reserved © 2015-2018